Джеймс і персик-гігант / James and the Giant Peach (1996) mini 1080p H.265 Ukr/Eng | Sub Eng

Нові коментарі

Нова тема   Відповісти
Автор Повідомлення
ukr_anonymous 
Попереджень: 1
Попереджень: 1 


З нами з: 17.04.18
Востаннє: 25.06.18
Повідомлень: 84

2018-06-13 19:16  
Джеймс і персик-гігант / James and the Giant Peach (1996) mini 1080p H.265 Ukr/Eng | Sub Eng

Джеймс і персик-гігант / James and the Giant Peach (1996) mini 1080p H.265 Ukr/Eng | Sub Eng


Жанр: анімація, пригодницький, сімейний
Країна: Велика Британія, США



Кінокомпанія: Walt Disney Pictures, Allied Filmmakers, Skellington Productions Inc.
Режисер: Генрі Селік
Актори: Саймон Келлоу, Річард Дрейфус, Сьюзен Сарандон, Джейн Лівз, Джоанна Ламлі, Міріам Марґоліс, Піт Постлетвейт, Пол Террі, Девід Тьюліс, Дж. Стефен Койл

Сюжет:
Одного разу маленький Джеймс рятує життя павука. На знак подяки той дарує хлопчикові чарівне зілля, через якого невеликий персик несподівано зростає в гігантський фрукт.


Тривалість: 01:19:25
Якість:
Відео:
кодек: H.265 (HEVC)
розмір кадру: 1804 х 1080
бітрейт: 4 999 кб/с
бітова глибина: 10 біт
Увага! Перед завантаженням переконайтесь, що ваш пристрій відтворення (та/або ПЗ) підтримує H.265 (HEVC)

Аудіо # 1:
мова: українська
переклад: професійний дубльований
кодек: 5.1
бітрейт: 448 кб/с

Аудіо # 2:
мова: англійська
переклад: оригінал
кодек: 5.1
бітрейт: 384 кб/с

Субтитри # 1:
мова: англійська
тип: програмні (м'які)
формат: VobSub
Info
General
Unique ID : 143410793422244135819270575642096602495 (0x6BE3EA05149F9DC706F1C4ADF7568D7F)
Complete name : E:\video\James and the Giant Peach (1996) 1080p H.265 [UKR_ENG].
Format :
Format version : Version 4 / Version 2
File size : 3.24 GiB
Duration : 1 h 19 min
Overall bit rate : 5 840 kb/s
Movie name : James and the Giant Peach
Encoded date : UTC 2018-06-13 08:22:22
Writing application : v22.0.0 ('At The End Of The World') 64-bit
Writing library : libebml v1.3.5 + v1.4.8
Cover : Yes
Attachments : Cover.jpg

Video
ID : 1
Format : HEVC
Format/Info : High Efficiency Video Coding
Format profile : Main [email protected]@Main
Codec ID : V_MPEGH/ISO/HEVC
Duration : 1 h 19 min
Bit rate : 4 999 kb/s
Width : 1 804 pixels
Height : 1 080 pixels
Display aspect ratio : 5:3
Frame rate mode : Constant
Frame rate : 23.976 (24000/1001) FPS
Color space : YUV
Chroma subsampling : 4:2:0
Bit depth : 10 bits
Bits/(Pixel*Frame) : 0.107
Stream size : 2.77 GiB (86%)
Writing library : x265 2.7+337-54ff74d2b635:[Windows][GCC 7.3.0][64 bit] 10bit
Encoding settings : cpuid=1111039 / frame-threads=3 / numa-pools=8 / wpp / no-pmode / no-pme / no-psnr / no-ssim / log-level=2 / input-csp=1 / input-res=1804x1080 / interlace=0 / total-frames=114247 / level-idc=0 / high-tier=1 / uhd-bd=0 / ref=4 / no-allow-non-conformance / no-repeat-headers / annexb / no-aud / no-hrd / info / hash=0 / no-temporal-layers / open-gop / min-keyint=23 / keyint=250 / gop-lookahead=0 / bframes=4 / b-adapt=2 / b-pyramid / bframe-bias=0 / rc-lookahead=25 / lookahead-slices=4 / scenecut=40 / radl=0 / no-intra-refresh / ctu=64 / min-cu-size=8 / rect / no-amp / max-tu-size=32 / tu-inter-depth=1 / tu-intra-depth=1 / limit-tu=0 / rdoq-level=2 / dynamic-rd=0.00 / no-ssim-rd / signhide / no-tskip / nr-intra=0 / nr-inter=0 / no-constrained-intra / strong-intra-smoothing / max-merge=3 / limit-refs=3 / limit-modes / me=3 / subme=3 / merange=57 / temporal-mvp / weightp / no-weightb / no-analyze-src-pics / deblock=0:0 / sao / no-sao-non-deblock / rd=4 / no-early-skip / rskip / no-fast-intra / no-tskip-fast / no-cu-lossless / no-b-intra / no-splitrd-skip / rdpenalty=0 / psy-rd=2.00 / psy-rdoq=1.00 / no-rd-refine / no-lossless / cbqpoffs=0 / crqpoffs=0 / rc=abr / bitrate=5000 / qcomp=0.60 / qpstep=4 / stats-write=0 / stats-read=2 / cplxblur=20.0 / qblur=0.5 / ipratio=1.40 / pbratio=1.30 / aq-mode=3 / aq-strength=1.00 / cutree / zone-count=0 / no-strict-cbr / qg-size=32 / no-rc-grain / qpmax=69 / qpmin=0 / no-const-vbv / sar=0 / overscan=0 / videoformat=5 / range=0 / colorprim=2 / transfer=2 / colormatrix=2 / chromaloc=0 / display-window=0 / max-cll=0,0 / min-luma=0 / max-luma=1023 / log2-max-poc-lsb=8 / vui-timing-info / vui-hrd-info / slices=1 / no-opt-qp-pps / no-opt-ref-list-length-pps / multi-pass-opt-rps / scenecut-bias=0.05 / no-opt-cu-delta-qp / aq-motion / no-hdr / no-hdr-opt / no-dhdr10-opt / no-idr-recovery-sei / analysis-reuse-level=5 / scale-factor=0 / refine-intra=0 / refine-inter=0 / refine-mv=0 / no-limit-sao / ctu-info=0 / no-lowpass-dct / refine-mv-type=0 / copy-pic=1 / max-ausize-factor=1.0 / no-dynamic-refine / no-single-sei
Default : Yes
Forced : No

Audio #1
ID : 2
Format : AC-3
Format/Info : Audio Coding 3
Codec ID : A_AC3
Duration : 1 h 19 min
Bit rate mode : Constant
Bit rate : 448 kb/s
Channel(s) : 6 channels
Channel positions : Front: L C R, Side: L R, LFE
Sampling rate : 48.0 kHz
Frame rate : 31.250 FPS (1536 SPF)
Bit depth : 16 bits
Compression mode : Lossy
Stream size : 254 MiB (8%)
Title : DUB
Language : Ukrainian
Service kind : Complete Main
Default : Yes
Forced : No

Audio #2
ID : 3
Format : AC-3
Format/Info : Audio Coding 3
Codec ID : A_AC3
Duration : 1 h 19 min
Bit rate mode : Constant
Bit rate : 384 kb/s
Channel(s) : 6 channels
Channel positions : Front: L C R, Side: L R, LFE
Sampling rate : 48.0 kHz
Frame rate : 31.250 FPS (1536 SPF)
Bit depth : 16 bits
Compression mode : Lossy
Stream size : 218 MiB (7%)
Title : Original
Language : English
Service kind : Complete Main
Default : No
Forced : No

Text
ID : 4
Format : VobSub
Muxing mode : zlib
Codec ID : S_VOBSUB
Codec ID/Info : Picture based subtitle format used on DVDs
Duration : 1 h 15 min
Bit rate : 10.5 kb/s
Count of elements : 998
Stream size : 5.68 MiB (0%)
Language : English
Default : No
Forced : No

Menu
00:00:00.000 : en:Chapter 01
00:04:36.818 : en:Chapter 02
00:06:39.357 : en:Chapter 03
00:09:55.761 : en:Chapter 04
00:14:14.061 : en:Chapter 05
00:17:46.940 : en:Chapter 06
00:22:11.538 : en:Chapter 07
00:24:12.993 : en:Chapter 08
00:31:40.773 : en:Chapter 09
00:39:07.345 : en:Chapter 10
00:41:57.765 : en:Chapter 11
00:44:58.404 : en:Chapter 12
00:48:19.479 : en:Chapter 13
00:53:17.694 : en:Chapter 14
00:55:21.276 : en:Chapter 15
00:58:08.568 : en:Chapter 16
01:00:54.901 : en:Chapter 17
01:04:36.289 : en:Chapter 18
01:09:13.315 : en:Chapter 19
01:11:48.971 : en:Chapter 20
Скріншоти



Джерело:
Особиста оцінка: 0 - не дивився


Срібний реліз (на рейтинг впливає 50% завантаженого)
 Трекер:    Зареєстрований   

Завантажити / скачати мультфільм українською



відео для новачків



 Зареєстрований:   2018-06-13 19:16
 Розмір:   3.24 GB 
 Оцінка мультфільму:   -/10 (Голосів: 0)
   
Інші релізи
Ваш часовий пояс: GMT + 2 Години

Нова тема   Відповісти