Реальність кусається / Reality Bites (1994) mini 1080p H.265 Ukr/Eng | Sub Eng — HD українською

Реальність кусається / Reality Bites (1994) mini 1080p H.265 Ukr/Eng | Sub Eng

Нові коментарі

Нова тема   Відповісти
Автор Повідомлення
ukr_anonymous 
Попереджень: 1
Попереджень: 1 


З нами з: 17.04.18
Востаннє: 18.08.18
Повідомлень: 196

2018-06-13 19:01  
Реальність кусається / Reality Bites (1994) mini 1080p H.265 Ukr/Eng | Sub Eng

Реальність кусається / Reality Bites (1994) mini 1080p H.265 Ukr/Eng | Sub Eng

Жанр: комедія, драма, романтичний
Країна: США



Кінокомпанія: Jersey Films, Universal Pictures
Режисер: Бен Стіллер / Ben Stiller
Актори: Bайнона Райдер / Winona Ryder, Ітан Гоук / Ethan Hawke, Джанін Ґарофало / Janeane Garofalo, Стів Зан / Steve Zahn, Бен Стіллер / Ben Stiller, Свузі Керц / Swoosie Kurtz, Сьюзен Норфліт / Susan Norfleet, Джо Дон Бейкер / Joe Don Baker, Рене Зелвеґер / Renée Zellweger

Сюжет:
Лілайна працює асистентом нестерпного телеведучого. У вільний від роботи час наша героїня знімає документальний фільм про своїх однолітків, серед яких - її найкращий друг Трей - здібний, але «бунтар», який марнує час. Після появи Майкла - амбітного відео-продюсера, Лілайна несподівано для себе опиняється в епіцентрі пристрасного любовного трикутника. Тепер їй належить обирати між надійним, успішним Майклом і мрійливим, вітряним красенем Треєм.


Тривалість: 01:38:24
Якість:
Відео:
кодек: H.265 (HEVC)
розмір кадру: 1920 х 1040
бітрейт: 4 500 кб/с
бітова глибина: 10 біт
Увага! Перед завантаженням переконайтесь, що ваш пристрій відтворення (та/або ПЗ) підтримує H.265 (HEVC)

Аудіо # 1:
мова: українська
переклад: багатоголосий закадровий
кодек: 2.0
бітрейт: 192 кб/с

Аудіо # 2:
мова: англійська
переклад: оригінал
кодек: 5.1
бітрейт: 384 кб/с

Субтитри # 1:
мова: англійська
тип: програмні (м'які)
формат: *.srt
Info
General
Unique ID : 44147233878230378503434628436920858980 (0x213672AE153C614C57B0C37FEBAF7964)
Complete name : E:\video\Reality Bites (1994) 1080p H.265 [UKR_ENG].
Format :
Format version : Version 4 / Version 2
File size : 3.49 GiB
Duration : 1 h 38 min
Overall bit rate : 5 078 kb/s
Movie name : Reality Bites
Encoded date : UTC 2018-06-13 09:15:53
Writing application : v22.0.0 ('At The End Of The World') 64-bit
Writing library : libebml v1.3.5 + v1.4.8
Cover : Yes
Attachments : Cover.jpg

Video
ID : 1
Format : HEVC
Format/Info : High Efficiency Video Coding
Format profile : Main [email protected]@Main
Codec ID : V_MPEGH/ISO/HEVC
Duration : 1 h 38 min
Bit rate : 4 500 kb/s
Width : 1 920 pixels
Height : 1 040 pixels
Display aspect ratio : 1.85:1
Frame rate mode : Constant
Frame rate : 23.976 (24000/1001) FPS
Color space : YUV
Chroma subsampling : 4:2:0
Bit depth : 10 bits
Bits/(Pixel*Frame) : 0.094
Stream size : 3.09 GiB (89%)
Writing library : x265 2.7+337-54ff74d2b635:[Windows][GCC 7.3.0][64 bit] 10bit
Encoding settings : cpuid=1111039 / frame-threads=3 / numa-pools=8 / wpp / no-pmode / no-pme / no-psnr / no-ssim / log-level=2 / input-csp=1 / input-res=1920x1040 / interlace=0 / total-frames=141558 / level-idc=0 / high-tier=1 / uhd-bd=0 / ref=4 / no-allow-non-conformance / no-repeat-headers / annexb / no-aud / no-hrd / info / hash=0 / no-temporal-layers / open-gop / min-keyint=23 / keyint=250 / gop-lookahead=0 / bframes=4 / b-adapt=2 / b-pyramid / bframe-bias=0 / rc-lookahead=25 / lookahead-slices=4 / scenecut=40 / radl=0 / no-intra-refresh / ctu=64 / min-cu-size=8 / rect / no-amp / max-tu-size=32 / tu-inter-depth=1 / tu-intra-depth=1 / limit-tu=0 / rdoq-level=2 / dynamic-rd=0.00 / no-ssim-rd / signhide / no-tskip / nr-intra=0 / nr-inter=0 / no-constrained-intra / strong-intra-smoothing / max-merge=3 / limit-refs=3 / limit-modes / me=3 / subme=3 / merange=57 / temporal-mvp / weightp / no-weightb / no-analyze-src-pics / deblock=0:0 / sao / no-sao-non-deblock / rd=4 / no-early-skip / rskip / no-fast-intra / no-tskip-fast / no-cu-lossless / no-b-intra / no-splitrd-skip / rdpenalty=0 / psy-rd=2.00 / psy-rdoq=1.00 / no-rd-refine / no-lossless / cbqpoffs=0 / crqpoffs=0 / rc=abr / bitrate=4500 / qcomp=0.60 / qpstep=4 / stats-write=0 / stats-read=2 / cplxblur=20.0 / qblur=0.5 / ipratio=1.40 / pbratio=1.30 / aq-mode=3 / aq-strength=1.00 / cutree / zone-count=0 / no-strict-cbr / qg-size=32 / no-rc-grain / qpmax=69 / qpmin=0 / no-const-vbv / sar=0 / overscan=0 / videoformat=5 / range=0 / colorprim=2 / transfer=2 / colormatrix=2 / chromaloc=0 / display-window=0 / max-cll=0,0 / min-luma=0 / max-luma=1023 / log2-max-poc-lsb=8 / vui-timing-info / vui-hrd-info / slices=1 / no-opt-qp-pps / no-opt-ref-list-length-pps / multi-pass-opt-rps / scenecut-bias=0.05 / no-opt-cu-delta-qp / aq-motion / no-hdr / no-hdr-opt / no-dhdr10-opt / no-idr-recovery-sei / analysis-reuse-level=5 / scale-factor=0 / refine-intra=0 / refine-inter=0 / refine-mv=0 / no-limit-sao / ctu-info=0 / no-lowpass-dct / refine-mv-type=0 / copy-pic=1 / max-ausize-factor=1.0 / no-dynamic-refine / no-single-sei
Default : Yes
Forced : No

Audio #1
ID : 2
Format : AC-3
Format/Info : Audio Coding 3
Codec ID : A_AC3
Duration : 1 h 38 min
Bit rate mode : Constant
Bit rate : 192 kb/s
Channel(s) : 2 channels
Channel positions : Front: L R
Sampling rate : 48.0 kHz
Frame rate : 31.250 FPS (1536 SPF)
Bit depth : 16 bits
Compression mode : Lossy
Stream size : 135 MiB (4%)
Title : NLO.TV
Language : Ukrainian
Service kind : Complete Main
Default : Yes
Forced : No

Audio #2
ID : 3
Format : AC-3
Format/Info : Audio Coding 3
Codec ID : A_AC3
Duration : 1 h 38 min
Bit rate mode : Constant
Bit rate : 384 kb/s
Channel(s) : 6 channels
Channel positions : Front: L C R, Side: L R, LFE
Sampling rate : 48.0 kHz
Frame rate : 31.250 FPS (1536 SPF)
Bit depth : 16 bits
Compression mode : Lossy
Stream size : 270 MiB (8%)
Title : Original
Language : English
Service kind : Complete Main
Default : No
Forced : No

Text
ID : 4
Format : UTF-8
Codec ID : S_TEXT/UTF8
Codec ID/Info : UTF-8 Plain Text
Duration : 1 h 37 min
Bit rate : 74 b/s
Count of elements : 1338
Stream size : 53.3 KiB (0%)
Language : English
Default : Yes
Forced : No

Menu
00:00:00.000 : en:Chapter 01
00:04:14.545 : en:Chapter 02
00:09:06.003 : en:Chapter 03
00:14:57.187 : en:Chapter 04
00:21:20.612 : en:Chapter 05
00:22:41.151 : en:Chapter 06
00:34:07.920 : en:Chapter 07
00:43:18.012 : en:Chapter 08
00:47:35.435 : en:Chapter 09
00:48:47.215 : en:Chapter 10
00:56:22.087 : en:Chapter 11
01:03:16.834 : en:Chapter 12
01:08:21.263 : en:Chapter 13
01:17:50.999 : en:Chapter 14
01:28:40.231 : en:Chapter 15
01:33:05.580 : en:Chapter 16
Скріншоти



Джерело:
Особиста оцінка: 0 - не дивився


Срібний реліз (на рейтинг впливає 50% завантаженого)
 Трекер:    Зареєстрований   

Завантажити / скачати фільм українською



відео для новачків



 Зареєстрований:   2018-06-13 19:01
 Розмір:   3.49 GB 
 Оцінка фільму:   5.5/10 (Голосів: 2)
   
Інші релізи
-Star-Lord- 
Новенький


З нами з: 09.08.18
Востаннє: 18.08.18
Повідомлень: 6

2018-08-10 12:18  
Дякую за фільм!
Ваш часовий пояс: GMT + 2 Години

Нова тема   Відповісти