Бійтесь ходячих мерців (Сезон 4) / Fear the Walking Dead (Season 4) (2018) 1080p Ukr/Eng | Sub Eng

Нові коментарі

Нова тема   Відповісти
Автор Повідомлення
staf777 
Попереджень: 1
Попереджень: 1 


З нами з: 16.11.16
Востаннє: 16.12.18
Повідомлень: 1919

2018-06-13 16:54  
Бійтесь ходячих мерців (Сезон 4) / Fear the Walking Dead (Season 4) (2018) 1080p Ukr/Eng | Sub Eng

Бійтесь ходячих мерців (Сезон 4) / Fear the Walking Dead (Season 4) (2018) 1080p Ukr/Eng | Sub Eng


Жанр: драма, жахи, трилер
Країна: США



Кінокомпанія: AMC
Режисер: Адам Девідсон, Карі Скогланд, Стефан Шварц
Актори: Кім Діккенс, Кліф Кертіс, Френк Діллейн, Алісія Дебнем-Кері, Елізабет Родрігес, Мерседес Масон, Лоренцо Джеймс Хенрі, Рубен Бладес, Колман Домінго, Патрісія Реєс Спіндола

Сюжет:
Дія розгортається в недалекому майбутньому. Територія колись пахучого Лос-Анджелеса стала зоною сущого кошмару. До апокаліпсису призвело поява величезної кількості бродячих небіжчиків. Ці моторошні створіння стали результатом впливу новітнього вірусу, не відомого раніше науці. Засобів боротьби з напастю поки немає. Одні змирилися з гіркою долею і перетворилися в зомбі або загинули в жахливих муках. Інші роблять відчайдушні спроби вижити в цьому пеклі. Від колишнього райського куточка планети не залишилося і сліду. Небагато вижили з гіркою іронією згадують кращі часи, усвідомлюючи, настільки банальними були колишні проблеми.

Обставини звели разом Тревіса Манаву, колишнього вчителя, що перебуває в розлученні, і Медісон Кларк, жінку, що самостійно займалася вихованням двох дітей. Матері-одиначці завжди було непросто. Син і дочка виявилися проблемними. Ешлі сповнена амбіцій і не бажає вгамуватися, незважаючи на виниклі обставини і смертельний ризик. У Ніка справи набагато гірші. Раніше він пристрастився до вживання наркотичних речовин, і тепер робить спроби позбутися від залежності. Таким різним людям необхідно триматися разом і шукати шляхи до порозуміння. Лише в цьому випадку у них залишається надія на спасіння. Становище в місті погіршується щодня.


Тривалість: 1 серія: 45:00 (цілком серій: 16)
Перелік серій
Fear the Walking Dead. Season 4, Episode 1. What's Your Story?
Fear the Walking Dead. Season 4, Episode 2. Another Day in the Diamond
Fear the Walking Dead. Season 4, Episode 3. Good Out Here
Fear the Walking Dead. Season 4, Episode 4. Buried
Fear the Walking Dead. Season 4, Episode 5. Laura
Fear the Walking Dead. Season 4, Episode 6. Just in Case
Fear the Walking Dead. Season 4, Episode 7. The Wrong Side of Where You Are Now
Fear the Walking Dead. Season 4, Episode 8. No One's Gone
Fear the Walking Dead. Season 4, Episode 9. People Like Us
Fear the Walking Dead. Season 4, Episode 10. Close Your Eyes
Fear the Walking Dead. Season 4, Episode 11. The Code
Fear the Walking Dead. Season 4, Episode 12. Weak
Fear the Walking Dead. Season 4, Episode 13. Blackjack
Fear the Walking Dead. Season 4, Episode 14. MM 54
Fear the Walking Dead. Season 4, Episode 15. I Lose People...
Fear the Walking Dead. Season 4, Episode 16. ...I Lose Myself
Якість: 1080p [Amazon]
Відео:
кодек:
розмір кадру: 1920x1080
бітрейт: 10,0-11,9 Mб/с

Аудіо # 1:
мова: українська
переклад: багатоголосий закадровий
кодек: 2.0
бітрейт: 192 кб/с

Аудіо # 2:
мова: англійська
переклад: оригінал
кодек: E- 5.1
бітрейт: 640 кб/с

Субтитри # 1-2:
мова: англійська
тип: програмні (м'які)
формат: *.srt
Info
General
Unique ID : 207142706422948120061190365053551692288 (0x9BD63BEE613A34C2B719CF70546CCA00)
Complete name : H:\Fear the Walking Dead(Season 4)\Fear the Walking Dead S04E01 .
Format :
Format version : Version 4 / Version 2
File size : 4.06 GiB
Duration : 49 min 8 s
Overall bit rate mode : Variable
Overall bit rate : 11.8 Mb/s
Movie name : Fear the Walking Dead S04E01
Encoded date : UTC 2018-06-13 15:12:44
Writing application : v9.8.0 ('Kuglblids') 64bit
Writing library : libebml v1.3.4 + v1.4.5
Cover : Yes
Attachments : cover.jpg

Video
ID : 1
Format : AVC
Format/Info : Advanced Video Codec
Format profile : [email protected]
Format settings : CABAC / 4 Ref Frames
Format settings, CABAC : Yes
Format settings, ReFrames : 4 frames
Codec ID : V_MPEG4/ISO/AVC
Duration : 49 min 8 s
Bit rate mode : Variable
Bit rate : 11.0 Mb/s
Maximum bit rate : 15.0 Mb/s
Width : 1 920 pixels
Height : 1 080 pixels
Display aspect ratio : 16:9
Frame rate mode : Constant
Frame rate : 23.976 (24000/1001) FPS
Color space : YUV
Chroma subsampling : 4:2:0
Bit depth : 8 bits
Scan type : Progressive
Bits/(Pixel*Frame) : 0.221
Stream size : 3.77 GiB (93%)
Language : English
Default : Yes
Forced : No
Color range : Limited
Color primaries : BT.709
Transfer characteristics : BT.709
Matrix coefficients : BT.709

Audio #1
ID : 2
Format : AC-3
Format/Info : Audio Coding 3
Codec ID : A_AC3
Duration : 49 min 8 s
Bit rate mode : Constant
Bit rate : 192 kb/s
Channel(s) : 2 channels
Channel positions : Front: L R
Sampling rate : 48.0 kHz
Frame rate : 31.250 FPS (1536 SPF)
Bit depth : 16 bits
Compression mode : Lossy
Stream size : 67.5 MiB (2%)
Title : Багатоголосий [AMC]
Language : Ukrainian
Service kind : Complete Main
Default : Yes
Forced : Yes

Audio #2
ID : 3
Format : E-AC-3
Format/Info : Enhanced Audio Coding 3
Codec ID : A_EAC3
Duration : 49 min 8 s
Bit rate mode : Constant
Bit rate : 640 kb/s
Channel(s) : 6 channels
Channel positions : Front: L C R, Side: L R, LFE
Sampling rate : 48.0 kHz
Frame rate : 187.500 FPS (256 SPF)
Compression mode : Lossy
Stream size : 225 MiB (5%)
Language : English
Service kind : Complete Main
Default : No
Forced : No

Text #1
ID : 4
Format : UTF-8
Codec ID : S_TEXT/UTF8
Codec ID/Info : UTF-8 Plain Text
Duration : 47 min 57 s
Bit rate : 33 b/s
Count of elements : 477
Stream size : 11.8 KiB (0%)
Title : English
Language : English
Default : No
Forced : No

Text #2
ID : 5
Format : UTF-8
Codec ID : S_TEXT/UTF8
Codec ID/Info : UTF-8 Plain Text
Duration : 48 min 36 s
Bit rate : 41 b/s
Count of elements : 601
Stream size : 14.8 KiB (0%)
Title : English (SDH)
Language : English
Default : No
Forced : No
Скріншоти




Подяки: пану з цієї роздачі за синхронізацію та oster_ok за постер. Велика подяка пану Volovik за готові 12-16 серіі
Джерело: &
Особиста оцінка: 10 - без зайвих вагань рекомендую всім!


Бронзовий реліз (на рейтинг впливає 75% завантаженого)
 Трекер:    Зареєстрований   

Завантажити / скачати серіал українською



відео для новачків



 Зареєстрований:   2018-10-15 14:22
 Розмір:   55.36 GB 
 Оцінка серіалу:   7.6/10 (Голосів: 15)
   
bot 
робот


З нами з: 30.09.07
Востаннє: 26.05.05
Повідомлень: 20348

2018-06-13 19:36  
Тему перенесено з Анонси релізів до форуму Серіали в HD


staf777

staf777 
Попереджень: 1
Попереджень: 1 


З нами з: 16.11.16
Востаннє: 16.12.18
Повідомлень: 1919

2018-08-14 20:51  
Додав 9 серію
Roman7Fedorak 
Свій


З нами з: 30.03.12
Востаннє: 15.12.18
Повідомлень: 94

2018-08-17 12:54  
Роздайте хтось будь ласка Sad (1)
Roman7Fedorak 
Свій


З нами з: 30.03.12
Востаннє: 15.12.18
Повідомлень: 94

2018-08-18 18:45  
все дякую Happy буду роздавати
staf777 
Попереджень: 1
Попереджень: 1 


З нами з: 16.11.16
Востаннє: 16.12.18
Повідомлень: 1919

2018-08-21 16:54  
Додав 10 серію
staf777 
Попереджень: 1
Попереджень: 1 


З нами з: 16.11.16
Востаннє: 16.12.18
Повідомлень: 1919

2018-08-29 20:43  
Додав 11 серію
Volovik 
VIP


З нами з: 21.02.10
Востаннє: 15.12.18
Повідомлень: 401

2018-09-11 10:32  
додайте, будь ласка, 12 та 13 серії
завчасно дякую!

V.i.R.u.S 
Свій


З нами з: 19.11.10
Востаннє: 15.12.18
Повідомлень: 85

2018-09-13 18:05  
Коли буде продовження??
staf777 
Попереджень: 1
Попереджень: 1 


З нами з: 16.11.16
Востаннє: 16.12.18
Повідомлень: 1919

2018-09-14 09:01  
Вибачаюсь що не оновлюю - справа у том що перебрав на раргбі усі 1080 ріпи 12-13 серії і не на жоден не лягають укр доріжки тільки дарма витратив майже півдня ...
Volovik 
VIP


З нами з: 21.02.10
Востаннє: 15.12.18
Повідомлень: 401

2018-09-17 21:58  
Neytreenor 
Відео Гуртом - запис з ТБ
Відео Гуртом - запис з ТБ


З нами з: 03.04.11
Востаннє: 16.12.18
Повідомлень: 1516

2018-09-18 07:39  
staf777 написано:
Вибачаюсь що не оновлюю - справа у том що перебрав на раргбі усі 1080 ріпи 12-13 серії і не на жоден не лягають укр доріжки тільки дарма витратив майже півдня ...

Якщо не вдається знайти ріп - у нас є відповідна тема "взаємодопомоги": https://toloka.to/t19053.

slavik_v_z 
Відео Гуртом - фільмокрай
Відео Гуртом - фільмокрай


З нами з: 22.06.09
Востаннє: 16.12.18
Повідомлень: 631

2018-09-19 12:38  
Підходять під такі ріпи
Fear.the.Walking.Dead.S04E12.Weak.1080p.AMZN..DDP5.1.-INFLATE.
Fear.the.Walking.Dead.S04E13.Blackjack.1080p.AMZN..DDP5.1.-INFLATE.
Fear.the.Walking.Dead.S04E14.MM.54.1080p.AMZN..DDP5.1.-INFLATE.

V.i.R.u.S 
Свій


З нами з: 19.11.10
Востаннє: 15.12.18
Повідомлень: 85

2018-09-23 14:48  
То як будуть інші серії з перекладом чи завантажувати і дивитись російською? Sad (2)
staf777 
Попереджень: 1
Попереджень: 1 


З нами з: 16.11.16
Востаннє: 16.12.18
Повідомлень: 1919

2018-09-23 16:40  
slavik_v_z написано:
Підходять під такі ріпи

Взяв цей ріп https://rarbg2018.org/torrent/5zh7lyp
General
Unique ID : 235756574460214242541431797789206723608 (0xB15D108BD90B7F3BC7A5790B580B3C18)
Complete name : S:\Кинозал\Fear.the.Walking.Dead.S04E12.
Format :
Format version : Version 4 / Version 2
File size : 3.15 GiB
Duration : 43 min 26 s
Overall bit rate mode : Variable
Overall bit rate : 10.4 Mb/s
Movie name : Fear.the.Walking.Dead.S04E12
Encoded date : UTC 2018-09-23 13:35:53
Writing application : v24.0.0 ('Beyond The Pale') 64-bit
Writing library : libebml v1.3.6 + v1.4.9
Cover : Yes
Attachments : cover.jpg

Video
ID : 1
Format : AVC
Format/Info : Advanced Video Codec
Format profile : [email protected]
Format settings : CABAC / 4 Ref Frames
Format settings, CABAC : Yes
Format settings, ReFrames : 4 frames
Codec ID : V_MPEG4/ISO/AVC
Duration : 43 min 25 s
Bit rate mode : Variable
Bit rate : 9 552 kb/s
Maximum bit rate : 15.0 Mb/s
Width : 1 920 pixels
Height : 1 080 pixels
Display aspect ratio : 16:9
Frame rate mode : Constant
Frame rate : 23.976 (24000/1001) FPS
Color space : YUV
Chroma subsampling : 4:2:0
Bit depth : 8 bits
Scan type : Progressive
Bits/(Pixel*Frame) : 0.192
Stream size : 2.90 GiB (92%)
Default : Yes
Forced : No
Color range : Limited
Color primaries : BT.709
Transfer characteristics : BT.709
Matrix coefficients : BT.709

Audio #1
ID : 2
Format : AC-3
Format/Info : Audio Coding 3
Codec ID : A_AC3
Duration : 43 min 25 s
Bit rate mode : Constant
Bit rate : 192 kb/s
Channel(s) : 2 channels
Channel positions : Front: L R
Sampling rate : 48.0 kHz
Frame rate : 31.250 FPS (1536 SPF)
Bit depth : 16 bits
Compression mode : Lossy
Delay relative to video : 1 s 0 ms
Stream size : 59.6 MiB (2%)
Language : Ukrainian
Service kind : Complete Main
Default : Yes
Forced : Yes

Audio #2
ID : 3
Format : E-AC-3
Format/Info : Enhanced Audio Coding 3
Codec ID : A_EAC3
Duration : 43 min 25 s
Bit rate mode : Constant
Bit rate : 640 kb/s
Channel(s) : 6 channels
Channel positions : Front: L C R, Side: L R, LFE
Sampling rate : 48.0 kHz
Frame rate : 187.500 FPS (256 SPF)
Compression mode : Lossy
Stream size : 199 MiB (6%)
Language : English
Service kind : Complete Main
Default : No
Forced : No

Text
ID : 4
Format : UTF-8
Codec ID : S_TEXT/UTF8
Codec ID/Info : UTF-8 Plain Text
Duration : 43 min 13 s
Bit rate : 43 b/s
Count of elements : 654
Stream size : 13.7 KiB (0%)
Title : SDH
Language : English
Default : No
Forced : No
Ледь помітний розсіхрон

[Captain] 
VIP


З нами з: 18.02.12
Востаннє: 15.12.18
Повідомлень: 1951

2018-10-01 18:50  
Ліпше не робити, ніж робити погано. А розсинхрон це дуже погано
slavik_v_z 
Відео Гуртом - фільмокрай
Відео Гуртом - фільмокрай


З нами з: 22.06.09
Востаннє: 16.12.18
Повідомлень: 631

2018-10-02 00:17  
Audio #1
ID : 2
Format : AC-3
Format/Info : Audio Coding 3
Codec ID : A_AC3
Duration : 43 min 25 s
Bit rate mode : Constant
Bit rate : 192 kb/s
Channel(s) : 2 channels
Channel positions : Front: L R
Sampling rate : 48.0 kHz
Frame rate : 31.250 FPS (1536 SPF)
Bit depth : 16 bits
Compression mode : Lossy
Delay relative to video : 1 s 0 ms <= Може, проблема в цьому?
Stream size : 59.6 MiB (2%)
Language : Ukrainian
Service kind : Complete Main
Default : Yes
Forced : Yes

V.i.R.u.S 
Свій


З нами з: 19.11.10
Востаннє: 15.12.18
Повідомлень: 85

2018-10-09 20:29  
Агов шановні, то щось буде чи ні??
fridomfighter 
Свій


З нами з: 01.12.16
Востаннє: 15.12.18
Повідомлень: 60

2018-10-10 20:11  
V.i.R.u.S
Я теж чекаю Cry (1)

Volovik 
VIP


З нами з: 21.02.10
Востаннє: 15.12.18
Повідомлень: 401

2018-10-14 11:12  
я не дочекався і зробив собі сам. там справді 1-секундний ділей прибрати і ніякого розсинхрону
[Captain] 
VIP


З нами з: 18.02.12
Востаннє: 15.12.18
Повідомлень: 1951

2018-10-14 11:17  
Volovik
можете викласти?
а цьому наркоману-релізеру я б заборонив займатися серіалами взагалі

Volovik 
VIP


З нами з: 21.02.10
Востаннє: 15.12.18
Повідомлень: 401

2018-10-14 17:11  
[Captain]
можу залити готові серії на фекс, а релізер хай викладе
бо готувати повністю окремий реліз трохи не маю часу

staf777 
Попереджень: 1
Попереджень: 1 


З нами з: 16.11.16
Востаннє: 16.12.18
Повідомлень: 1919

2018-10-15 14:10  
[Captain]
а цьому наркоману-релізеру я б заборонив займатися серіалами взагалі
Дядька фільтруй базар будь ласка - марихуана легалізована у багатьох країнах і не рахується як наркота ... Вже наболіло в кожному своєму коменті Ви лише мене і обсирате і який я криворрукий релізер і нехороший наркоман - прошу припинити лити тут лайно

Додано через 6 хвилин 21 секунду:

Додав 12-16 серію

Ваш часовий пояс: GMT + 2 Години

Нова тема   Відповісти