Тихоокеанський рубіж. Дилогія / Pacific Rim. Dilogy (2013, 2018) 1080p H.265 Ukr/Eng | sub Ukr/Eng

Нові коментарі

Нова тема   Відповісти
Автор Повідомлення
ukr_anonymous 
Попереджень: 1
Попереджень: 1 


З нами з: 16.04.18
Востаннє: 14.12.18
Повідомлень: 231

2018-06-12 17:22  
Тихоокеанський рубіж. Дилогія / Pacific Rim. Dilogy (2013, 2018) 1080p H.265 Ukr/Eng | sub Ukr/Eng

Тихоокеанський рубіж. Дилогія / Pacific Rim. Dilogy (2013, 2018) 1080p H.265 Ukr/Eng | sub Ukr/Eng



Тихоокеанський рубіж / Pacific Rim (2013) 1080p H.265 Ukr/Eng | Sub Ukr/Eng
Тихоокеанський рубіж / Pacific Rim (2013) 1080p H.265 Ukr/Eng | Sub Ukr/Eng

Тихоокеанський рубіж. Дилогія / Pacific Rim. Dilogy (2013, 2018) 1080p H.265 Ukr/Eng | sub Ukr/Eng

Жанр: бойовик, пригодницький, фантастика
Країна: США



Кінокомпанія: Warner Bros., Legendary Pictures
Режисер: Гільєрмо Дель Торо (Guillermo del Toro)
Актори: Чарлі Ханнем (Charlie Hunnam), Рон Перлман (Ron Perlman), Ідріс Ельба (Idris Elba), Кліфтон Коллінз мол. (Clifton Collins Jr.), Чарлі Дей (Charlie Day), Роберт Мэйллет (Robert Maillet) та інші.

Сюжет:
Коли з морських глибин піднялися легіони чудовиськ, відомих як Кайдзу, почалася війна, якій судилося забрати мільйони життів і звести «людські ресурси» майже до нуля всього за кілька років. Щоб битися з прибульцями, було створено спеціальну зброю: величезні роботи, названі Джегерами, які керувалися одночасно двома пілотами. Але навіть Джегери виявляються майже безсилі перед могутніми Кайдзу.
На межі поразки захисники людства звертаються до двох вельми сумнівних героїв - колишнього пілота і недосвідченого стажиста - які мають об'єднатися, щоб повести в бій єдиного уцілівшого Джегера.


Тривалість: 2:11:16
Якість:
Відео:
кодек: H.265 (HEVC)
розмір кадру: 1920 х 1080
бітрейт: 5007 кб/с
бітова глибина: 10 біт
Увага! Перед завантаженням переконайтесь, що ваш пристрій відтворення (та/або ПЗ) підтримує H.265 (HEVC)

Аудіо # 1:
мова: українська
переклад: професійний дубльований
кодек: 5.1
бітрейт: 448 кб/с

Аудіо # 2:
мова: англійська
переклад: оригінал
кодек: 5.1
бітрейт: 448 кб/с

Субтитри # 1-2:
мова: українська (Full, Forced)
тип: програмні (м'які)
формат: *.srt

Субтитри # 3:
мова: англійська (Full)
тип: програмні (м'які)
формат: *.srt
Info
General
Unique ID : 35013520573244367068930877013439819680 (0x1A575BD88CD64FEF9231C76D8D982FA0)
Complete name : F:\Video\Pacific Rim. Диологія\Pacific Rim (2013) 1080p H.265 [UKR_ENG].
Format :
Format version : Version 4 / Version 2
File size : 5.41 GiB
Duration : 2 h 11 min
Overall bit rate : 5 900 kb/s
Movie name : Pacific Rim (2013)
Encoded date : UTC 2018-06-12 14:57:59
Writing application : v22.0.0 ('At The End Of The World') 64-bit
Writing library : libebml v1.3.5 + v1.4.8
Cover : Yes
Attachments : Cover.jpg

Video
ID : 1
Format : HEVC
Format/Info : High Efficiency Video Coding
Format profile : Main [email protected]@Main
Codec ID : V_MPEGH/ISO/HEVC
Duration : 2 h 11 min
Bit rate : 5 007 kb/s
Width : 1 920 pixels
Height : 1 080 pixels
Display aspect ratio : 16:9
Frame rate mode : Constant
Frame rate : 23.976 (24000/1001) FPS
Color space : YUV
Chroma subsampling : 4:2:0
Bit depth : 10 bits
Bits/(Pixel*Frame) : 0.101
Stream size : 4.59 GiB (85%)
Default : Yes
Forced : No
Color range : Limited
Color primaries : BT.709
Transfer characteristics : BT.709
Matrix coefficients : BT.709

Audio #1
ID : 2
Format : AC-3
Format/Info : Audio Coding 3
Codec ID : A_AC3
Duration : 2 h 11 min
Bit rate mode : Constant
Bit rate : 448 kb/s
Channel(s) : 6 channels
Channel positions : Front: L C R, Side: L R, LFE
Sampling rate : 48.0 kHz
Frame rate : 31.250 FPS (1536 SPF)
Bit depth : 16 bits
Compression mode : Lossy
Stream size : 421 MiB (8%)
Title : DUB
Language : Ukrainian
Service kind : Complete Main
Default : Yes
Forced : No

Audio #2
ID : 3
Format : AC-3
Format/Info : Audio Coding 3
Codec ID : A_AC3
Duration : 2 h 11 min
Bit rate mode : Constant
Bit rate : 448 kb/s
Channel(s) : 6 channels
Channel positions : Front: L C R, Side: L R, LFE
Sampling rate : 48.0 kHz
Frame rate : 31.250 FPS (1536 SPF)
Bit depth : 16 bits
Compression mode : Lossy
Stream size : 421 MiB (8%)
Title : Original
Language : English
Service kind : Complete Main
Default : No
Forced : No

Text #1
ID : 4
Format : UTF-8
Codec ID : S_TEXT/UTF8
Codec ID/Info : UTF-8 Plain Text
Duration : 2 h 10 min
Bit rate : 87 b/s
Count of elements : 1659
Stream size : 83.7 KiB (0%)
Title : Ukr
Language : Ukrainian
Default : Yes
Forced : No

Text #2
ID : 5
Format : UTF-8
Codec ID : S_TEXT/UTF8
Codec ID/Info : UTF-8 Plain Text
Duration : 2 h 10 min
Bit rate : 2 b/s
Count of elements : 49
Stream size : 2.46 KiB (0%)
Title : Ukr (Forced)
Language : Ukrainian
Default : No
Forced : No

Text #3
ID : 6
Format : UTF-8
Codec ID : S_TEXT/UTF8
Codec ID/Info : UTF-8 Plain Text
Duration : 2 h 4 min
Bit rate : 55 b/s
Count of elements : 1618
Stream size : 50.7 KiB (0%)
Title : Eng
Language : English
Default : No
Forced : No

Menu
00:00:00.000 : en:00:00:00.000
00:09:09.131 : en:00:09:09.132
00:18:35.823 : en:00:18:35.823
00:23:04.340 : en:00:23:04.341
00:33:00.395 : en:00:33:00.395
00:42:44.896 : en:00:42:44.896
00:50:01.665 : en:00:50:01.665
01:01:09.666 : en:01:01:09.666
01:14:45.106 : en:01:14:45.106
01:22:21.311 : en:01:22:21.311
01:32:09.941 : en:01:32:09.941
01:41:55.609 : en:01:41:55.609
01:51:37.858 : en:01:51:37.858
01:59:21.029 : en:01:59:21.029
02:02:17.830 : en:02:02:17.830
Скріншоти



Джерело:
Особиста оцінка: 9 - давно не бачив настільки якісне кіно
Тихоокеанський рубіж: Повстання / Pacific Rim: Uprising (2018) 1080p H.265 Ukr/Eng | Sub Eng
Тихоокеанський рубіж: Повстання / Pacific Rim: Uprising (2018) 1080p H.265 Ukr/Eng | Sub Eng

Тихоокеанський рубіж. Дилогія / Pacific Rim. Dilogy (2013, 2018) 1080p H.265 Ukr/Eng | sub Ukr/Eng

Жанр: бойовик, пригоди, фантастика
Країна: США, Китай, Велика Британія



Кінокомпанія: Universal Pictures, Legendary Pictures
Режисер: Стівен С. ДеНайт
Актори: Джон Боєґа, Скотт Іствуд, Адріа Архона, Тянь Цзин, Рінко Кікучі, Чарлі Дей, Берн Горман, Дастін Клер, Каран Брар, Іванна Сахно та інші

Сюжет:
Від великої битви між людьми та кайдзю минуло 10 років. Монстри з глибин океану більше не дошкуляють людям, проте роботи над створенням удосконалених єгерів не припинялися. І не даремно, бо кайдзю знову виходять на поверхню. Очолити спротив та стати пілотом кращого з єгерів зможе лише Джейк Пентекост (Джон Боєґа) – син Стекера, який керував загоном пілотів єгерів десять років тому.


Тривалість: 01:50:42
Якість:
Відео:
кодек: H.265 (HEVC)
розмір кадру: 1920 х 800
бітрейт: 4 999 кб/с
бітова глибина: 10 біт
Увага! Перед завантаженням переконайтесь, що ваш пристрій відтворення (та/або ПЗ) підтримує H.265 (HEVC)

Аудіо # 1:
мова: українська
переклад: професійний дубльований | студія LeDoyen
кодек: 2.0 (Стерео)
бітрейт: 192 кб/с

Аудіо # 2:
мова: англійська
переклад: оригінал
кодек: 5.1
бітрейт: 448 кб/с

Субтитри # 1:
мова: українська (Full, Forced)
тип: програмні (м'які)
формат: *.srt

Субтитри # 2:
мова: англійська (Full)
тип: програмні (м'які)
формат: *.srt
Info
General
Unique ID : 330819024794464090289802277362339009781 (0xF8E16D35D1B00E76FF40609245B1D4F5)
Complete name : F:\Video\Pacific Rim. Диологія\Pacific Rim Uprising (2018) 1080p H.265 [UKR_ENG].
Format :
Format version : Version 4 / Version 2
File size : 4.36 GiB
Duration : 1 h 50 min
Overall bit rate : 5 642 kb/s
Movie name : Pacific Rim Uprising
Encoded date : UTC 2018-06-15 11:00:59
Writing application : v22.0.0 ('At The End Of The World') 64-bit
Writing library : libebml v1.3.5 + v1.4.8
Cover : Yes
Attachments : cover.jpg

Video
ID : 1
Format : HEVC
Format/Info : High Efficiency Video Coding
Format profile : Main [email protected]@Main
Codec ID : V_MPEGH/ISO/HEVC
Duration : 1 h 50 min
Bit rate : 4 999 kb/s
Width : 1 920 pixels
Height : 800 pixels
Display aspect ratio : 2.40:1
Frame rate mode : Constant
Frame rate : 23.976 (24000/1001) FPS
Color space : YUV
Chroma subsampling : 4:2:0
Bit depth : 10 bits
Bits/(Pixel*Frame) : 0.136
Stream size : 3.87 GiB (89%)
Writing library : x265 2.8+1-478bfe2b7673:[Windows][GCC 7.3.0][64 bit] 10bit
Encoding settings : cpuid=1111039 / frame-threads=3 / numa-pools=8 / wpp / no-pmode / no-pme / no-psnr / no-ssim / log-level=2 / input-csp=1 / input-res=1920x800 / interlace=0 / total-frames=159253 / level-idc=0 / high-tier=1 / uhd-bd=0 / ref=4 / no-allow-non-conformance / no-repeat-headers / annexb / no-aud / no-hrd / info / hash=0 / no-temporal-layers / open-gop / min-keyint=23 / keyint=250 / gop-lookahead=0 / bframes=4 / b-adapt=2 / b-pyramid / bframe-bias=0 / rc-lookahead=25 / lookahead-slices=4 / scenecut=40 / radl=0 / no-intra-refresh / ctu=64 / min-cu-size=8 / rect / no-amp / max-tu-size=32 / tu-inter-depth=1 / tu-intra-depth=1 / limit-tu=0 / rdoq-level=2 / dynamic-rd=0.00 / no-ssim-rd / signhide / no-tskip / nr-intra=0 / nr-inter=0 / no-constrained-intra / strong-intra-smoothing / max-merge=3 / limit-refs=3 / limit-modes / me=3 / subme=3 / merange=57 / temporal-mvp / weightp / no-weightb / no-analyze-src-pics / deblock=0:0 / sao / no-sao-non-deblock / rd=4 / no-early-skip / rskip / no-fast-intra / no-tskip-fast / no-cu-lossless / no-b-intra / no-splitrd-skip / rdpenalty=0 / psy-rd=2.00 / psy-rdoq=1.00 / no-rd-refine / no-lossless / cbqpoffs=0 / crqpoffs=0 / rc=abr / bitrate=5000 / qcomp=0.60 / qpstep=4 / stats-write=0 / stats-read=2 / cplxblur=20.0 / qblur=0.5 / ipratio=1.40 / pbratio=1.30 / aq-mode=3 / aq-strength=1.00 / cutree / zone-count=0 / no-strict-cbr / qg-size=32 / no-rc-grain / qpmax=69 / qpmin=0 / no-const-vbv / sar=0 / overscan=0 / videoformat=5 / range=0 / colorprim=2 / transfer=2 / colormatrix=2 / chromaloc=0 / display-window=0 / max-cll=0,0 / min-luma=0 / max-luma=1023 / log2-max-poc-lsb=8 / vui-timing-info / vui-hrd-info / slices=1 / no-opt-qp-pps / no-opt-ref-list-length-pps / multi-pass-opt-rps / scenecut-bias=0.05 / no-opt-cu-delta-qp / aq-motion / no-hdr / no-hdr-opt / no-dhdr10-opt / no-idr-recovery-sei / analysis-reuse-level=5 / scale-factor=0 / refine-intra=0 / refine-inter=0 / refine-mv=0 / no-limit-sao / ctu-info=0 / no-lowpass-dct / refine-mv-type=0 / copy-pic=1 / max-ausize-factor=1.0 / no-dynamic-refine / no-single-sei
Default : Yes
Forced : No

Audio #1
ID : 2
Format : AC-3
Format/Info : Audio Coding 3
Codec ID : A_AC3
Duration : 1 h 50 min
Bit rate mode : Constant
Bit rate : 192 kb/s
Channel(s) : 2 channels
Channel positions : Front: L R
Sampling rate : 48.0 kHz
Frame rate : 31.250 FPS (1536 SPF)
Bit depth : 16 bits
Compression mode : Lossy
Stream size : 152 MiB (3%)
Title : 2.0 @ 192 kbps
Language : Ukrainian
Service kind : Complete Main
Default : Yes
Forced : Yes

Audio #2
ID : 3
Format : AC-3
Format/Info : Audio Coding 3
Codec ID : A_AC3
Duration : 1 h 50 min
Bit rate mode : Constant
Bit rate : 448 kb/s
Channel(s) : 6 channels
Channel positions : Front: L C R, Side: L R, LFE
Sampling rate : 48.0 kHz
Frame rate : 31.250 FPS (1536 SPF)
Bit depth : 16 bits
Compression mode : Lossy
Stream size : 355 MiB (8%)
Title : 5.1 @ 448 kbps - Original
Language : English
Service kind : Complete Main
Default : No
Forced : No

Text #1
ID : 4
Format : UTF-8
Codec ID : S_TEXT/UTF8
Codec ID/Info : UTF-8 Plain Text
Duration : 1 h 40 min
Bit rate : 4 b/s
Count of elements : 59
Stream size : 3.65 KiB (0%)
Title : Forced
Language : Ukrainian
Default : Yes
Forced : Yes

Text #2
ID : 5
Format : UTF-8
Codec ID : S_TEXT/UTF8
Codec ID/Info : UTF-8 Plain Text
Duration : 1 h 40 min
Bit rate : 59 b/s
Count of elements : 1161
Stream size : 43.4 KiB (0%)
Title : Full
Language : English
Default : No
Forced : No

Menu
00:00:00.000 : en:00:00:00.000
00:06:54.873 : en:00:06:54.873
00:13:05.368 : en:00:13:05.368
00:15:51.075 : en:00:15:51.075
00:20:36.360 : en:00:20:36.360
00:24:49.697 : en:00:24:49.697
00:31:08.241 : en:00:31:08.241
00:37:56.065 : en:00:37:56.065
00:43:37.949 : en:00:43:37.949
00:49:01.939 : en:00:49:01.939
00:53:40.926 : en:00:53:40.926
00:58:12.030 : en:00:58:12.030
01:04:45.006 : en:01:04:45.006
01:09:25.536 : en:01:09:25.536
01:14:36.722 : en:01:14:36.722
01:22:53.427 : en:01:22:53.427
01:29:02.546 : en:01:29:02.546
01:33:10.585 : en:01:33:10.585
01:38:07.381 : en:01:38:07.381
01:40:55.049 : en:01:40:55.049
Скріншоти



Джерело:
Особиста оцінка: 0 - не дивився



Бронзовий реліз (на рейтинг впливає 75% завантаженого)
 Трекер:    Зареєстрований   

Завантажити / скачати фільм українською



відео для новачків



 Зареєстрований:   2018-06-15 13:37
 Розмір:   9.77 GB 
 Оцінка фільму:   8.9/10 (Голосів: 10)
   
11FrYkT 
Модератор відео


З нами з: 20.02.11
Востаннє: 15.12.18
Повідомлень: 5260

2018-06-15 11:55  
Цитата:
x265
Параметри кодування мають відповідати хоча б me=umh (2), subme=3, ref=3
ukr_anonymous написано:
ref=2

bot 
робот


З нами з: 30.09.07
Востаннє: 26.05.05
Повідомлень: 20343

2018-06-19 13:48  
Тему перенесено з Неоформлене відео до форуму Фільми в HD


11FrYkT

Yaremuha 
Новенький


З нами з: 08.05.11
Востаннє: 11.12.18
Повідомлень: 10

2018-10-10 01:52  
Звук в " Тихоокеанський рубіж: Повстання" буде замінено на АС 5.1 чи ? Бо 2.0 з бітрейдом 192 якось не солідно.
ukr_anonymous 
Попереджень: 1
Попереджень: 1 


З нами з: 16.04.18
Востаннє: 14.12.18
Повідомлень: 231

2018-10-10 09:40  
Yaremuha
Якщо надасте кращу доріжку, то заміню. Поки кращої немає.

Ваш часовий пояс: GMT + 2 Години

Нова тема   Відповісти