Звіт з Європи (Європа) / Europa Report (2013) 1080p 2xUkr/Eng | Sub Eng

Нові коментарі

Нова тема   Відповісти
Автор Повідомлення
staf777 
Попереджень: 1
Попереджень: 1 


З нами з: 16.11.16
Востаннє: 25.06.18
Повідомлень: 1154

2018-06-12 13:48  
Звіт з Європи (Європа) / Europa Report (2013) 1080p 2xUkr/Eng | Sub Eng

Звіт з Європи (Європа) / Europa Report (2013) 1080p 2xUkr/Eng | Sub Eng


Жанр: фантастика, трилер
Країна: США



Кінокомпанія: Wayfare Entertainment, Misher Films, Start Motion Pictures
Режисер: Себастьян Кордеро
Актори: Крістіан Камарґо, Шарлто Коплі, Анамарія Марінка, Мікаел Нюквіст, Деніел Ву, Кароліна Видра, Ембет Девідц, Ісайя Вітлок мол., Ден Фоґлер

Сюжет:
У фільмі розповідається про міжнародну космічну експедицію до шостого супутника Юпітера, яку споряджає приватна корпорація. Мета польоту - висадитися на поверхні Європи, у підлідному океані якої вчені теоретично припускають наявність життя.


Тривалість: 01:30:25
Якість: 1080p
Відео:
кодек:
розмір кадру: 1920x1080
бітрейт: 14.0 Мб/с
Аудіо # 1:
мова: українська
переклад: багатоголосий закадровий
кодек: 2.0
бітрейт: 192 кб/с

Аудіо # 2:
мова: українська
переклад: багатоголосий закадровий
кодек: 2.0
бітрейт: 192 кб/с

Аудіо # 3:
мова: англійська
переклад: оригінал
кодек: 5.1
бітрейт: 640 кб/с

Субтитри # 1-3: (повні, SDH, SDH кольорові)
мова: англійська
тип: програмні (м'які)
формат: *.srt
Info
General
Unique ID : 210338174058884170308592237464179625337 (0x9E3DA8A6400129D294A6584939AACD79)
Complete name : G:\Майбутні релізи\Europa Report (2013) 1080p [2XUKR_ENG] [Hurtom].
Format :
Format version : Version 4 / Version 2
File size : 9.50 GiB
Duration : 1 h 30 min
Overall bit rate mode : Variable
Overall bit rate : 15.0 Mb/s
Movie name : Europa Report (2013) 1080p [2XUKR_ENG] [Hurtom]
Encoded date : UTC 2018-06-12 16:35:47
Writing application : v9.8.0 ('Kuglblids') 64bit
Writing library : libebml v1.3.4 + v1.4.5
Cover : Yes
Attachments : covers.jpg

Video
ID : 1
Format : AVC
Format/Info : Advanced Video Codec
Format profile : [email protected]
Format settings : CABAC / 4 Ref Frames
Format settings, CABAC : Yes
Format settings, ReFrames : 4 frames
Codec ID : V_MPEG4/ISO/AVC
Duration : 1 h 30 min
Bit rate mode : Variable
Bit rate : 14.0 Mb/s
Maximum bit rate : 30.0 Mb/s
Width : 1 920 pixels
Height : 1 080 pixels
Display aspect ratio : 16:9
Frame rate mode : Constant
Frame rate : 23.976 (24000/1001) FPS
Color space : YUV
Chroma subsampling : 4:2:0
Bit depth : 8 bits
Scan type : Progressive
Bits/(Pixel*Frame) : 0.282
Stream size : 8.85 GiB (93%)
Writing library : core 135 r2345 f0c1c53
Encoding settings : cabac=1 / ref=4 / deblock=1:0:0 / analyse=0x3:0x133 / me=umh / subme=9 / psy=1 / psy_rd=1.00:0.00 / mixed_ref=1 / me_range=16 / chroma_me=1 / trellis=2 / 8x8dct=1 / cqm=0 / deadzone=21,11 / fast_pskip=1 / chroma_qp_offset=-2 / threads=12 / lookahead_threads=1 / sliced_threads=0 / slices=4 / nr=0 / decimate=1 / interlaced=0 / bluray_compat=1 / constrained_intra=0 / bframes=3 / b_pyramid=0 / b_adapt=1 / b_bias=0 / direct=3 / weightb=1 / open_gop=0 / weightp=1 / keyint=24 / keyint_min=1 / scenecut=40 / intra_refresh=0 / rc_lookahead=24 / rc=2pass / mbtree=1 / bitrate=14020 / ratetol=1.0 / qcomp=0.60 / qpmin=0 / qpmax=69 / qpstep=4 / cplxblur=20.0 / qblur=0.5 / vbv_maxrate=30000 / vbv_bufsize=30000 / nal_hrd=vbr / ip_ratio=1.10 / aq=1:1.00
Language : English
Default : Yes
Forced : No

Audio #1
ID : 2
Format : AC-3
Format/Info : Audio Coding 3
Codec ID : A_AC3
Duration : 1 h 30 min
Bit rate mode : Constant
Bit rate : 192 kb/s
Channel(s) : 2 channels
Channel positions : Front: L R
Sampling rate : 48.0 kHz
Frame rate : 31.250 FPS (1536 SPF)
Bit depth : 16 bits
Compression mode : Lossy
Stream size : 124 MiB (1%)
Title : [UA-MVO-ICTV]
Language : Ukrainian
Service kind : Complete Main
Default : Yes
Forced : Yes

Audio #2
ID : 3
Format : AC-3
Format/Info : Audio Coding 3
Codec ID : A_AC3
Duration : 1 h 30 min
Bit rate mode : Constant
Bit rate : 192 kb/s
Channel(s) : 2 channels
Channel positions : Front: L R
Sampling rate : 48.0 kHz
Frame rate : 31.250 FPS (1536 SPF)
Bit depth : 16 bits
Compression mode : Lossy
Stream size : 124 MiB (1%)
Title : [UA-MVO-K1]
Language : Ukrainian
Service kind : Complete Main
Default : No
Forced : No

Audio #3
ID : 4
Format : AC-3
Format/Info : Audio Coding 3
Codec ID : A_AC3
Duration : 1 h 30 min
Bit rate mode : Constant
Bit rate : 640 kb/s
Channel(s) : 6 channels
Channel positions : Front: L C R, Side: L R, LFE
Sampling rate : 48.0 kHz
Frame rate : 31.250 FPS (1536 SPF)
Bit depth : 16 bits
Compression mode : Lossy
Stream size : 414 MiB (4%)
Title : ENG.
Language : English
Service kind : Complete Main
Default : No
Forced : No

Text #1
ID : 5
Format : UTF-8
Codec ID : S_TEXT/UTF8
Codec ID/Info : UTF-8 Plain Text
Duration : 1 h 23 min
Bit rate : 60 b/s
Count of elements : 1194
Stream size : 37.0 KiB (0%)
Title : Full
Language : English
Default : No
Forced : No

Text #2
ID : 6
Format : UTF-8
Codec ID : S_TEXT/UTF8
Codec ID/Info : UTF-8 Plain Text
Duration : 1 h 23 min
Bit rate : 75 b/s
Count of elements : 1441
Stream size : 46.2 KiB (0%)
Title : SDH
Language : English
Default : No
Forced : No

Text #3
ID : 7
Format : UTF-8
Codec ID : S_TEXT/UTF8
Codec ID/Info : UTF-8 Plain Text
Duration : 1 h 23 min
Bit rate : 112 b/s
Count of elements : 1441
Stream size : 69.1 KiB (0%)
Title : SDH (Colored)
Language : English
Default : No
Forced : No

Menu
00:00:00.000 : en:00:00:00.000
00:07:24.944 : en:00:07:24.944
00:15:46.987 : en:00:15:46.987
00:22:05.490 : en:00:22:05.490
00:28:40.218 : en:00:28:40.218
00:34:55.718 : en:00:34:55.718
00:40:22.253 : en:00:40:22.253
00:51:24.081 : en:00:51:24.081
00:59:42.996 : en:00:59:42.996
01:09:13.649 : en:01:09:13.649
01:18:32.332 : en:01:18:32.332
01:24:27.145 : en:01:24:27.145
01:30:25.086 : en:01:30:25.086
Скріншоти



Подяка POMEO, krigg070 та Bohdan237 за запис з ТБ ninenine та Arsenfpu за синхронізацію українських доріжок, DanyZemlyanoy за українізований постер.
Джерело: &
Особиста оцінка: 0 - не дивився


 Трекер:    Зареєстрований   

Завантажити / скачати фільм українською



відео для новачків



 Зареєстрований:   2018-06-14 16:32
 Розмір:   9.5 GB 
 Оцінка фільму:   8.7/10 (Голосів: 7)
   
Інші релізи
   Звіт з Європи (Європа) / Europa Report (2013) Remux 1080p 2xUkr/Eng | Sub Eng staf777  3 / 0   16.01 GB   2018-05-05 20:54 
   Звіт з Європи (Європа) / Europa Report (2013) 2xUkr/Eng Arsenfpu  11 / 0   1.7 GB   2017-12-05 23:15 
   Європа / Europa Report (2013) AVC Patriot_ukr  4 / 0   1.74 GB   2017-02-14 21:53 
   Європа / Europa Report (2013) 720p Ukr/Eng | Sub Eng igor911  11 / 0   4.79 GB   2016-09-26 23:59 
bot 
робот


З нами з: 30.09.07
Востаннє: 26.05.05
Повідомлень: 19166

2018-06-14 16:32  
Тему перенесено з Анонси релізів до форуму Фільми в HD


staf777

DoctorLife 
Частий відвідувач


З нами з: 19.04.10
Востаннє: 24.06.18
Повідомлень: 28

2018-06-15 13:59  
Колись дивився. Доволі моторошний фільм у псевдонауковому стилі. Так, ніби люди справді туди полетіли.
Ваш часовий пояс: GMT + 2 Години

Нова тема   Відповісти