Потяг до Пусану / Train to Busan / Busanhaeng / 부산행 (2016) Remux 1080p Ukr/Kor | Sub Eng

Нові коментарі

Нова тема   Відповісти
Автор Повідомлення
staf777 
Відео Гуртом - підтримка та поширення
Відео Гуртом - підтримка та поширення


З нами з: 16.11.16
Востаннє: 22.05.19
Повідомлень: 2373

2018-06-12 12:08  
Потяг до Пусану / Train to Busan / Busanhaeng / 부산행 (2016) Remux 1080p Ukr/Kor | Sub Eng

Потяг до Пусану / Train to Busan / Busanhaeng / 부산행 (2016) Remux 1080p Ukr/Kor | Sub Eng
Альтернативний постер:



Жанр: трилер, жахи, екшн
Країна: Південна Корея



Кінокомпанія: Next Entertainment World, RedPeter Film
Режисер: Йон Сан-хо
Актори: Кон Ю, Ма Дон-сік, Чон Ю-ми, Кім Су-ан, Кім І-сон, Чхве У-щик, Ан Со-хи, Чхве Кве Хва, Чон Сік-ен, Е Су-джон, Пак Мен-нок, Кім Юль-хо, Кім Чхан-хван, Пек Ін-Гвон, Чан Хек-чин та інші

Сюжет:
Через загадкові спалахи вірусу оголошено надзвичайний стан. Швидкісний потяг-експрес в Пусан став тимчасовим притулком для тих, хто зміг вирватися з охопленого загадковою епідемією Сеула. Випадкові пасажири не припускали, що їхній квиток на цей поїзд стане щасливим, але от чи надовго — ласкаво просимо на борт і постарайтеся залишитися в живих.


Тривалість: 01:58:09
Якість: Remux 1080p
Відео:
кодек:
розмір кадру: 1920x1080
бітрейт: 26.9 Mб/с

Аудіо # 1:
мова: українська
переклад: багатоголосий закадровий
кодек: 2.0
бітрейт: 192 кб/с

Аудіо # 2:
мова: корейська
переклад: оригінал
кодек: -HD MA 5.1
бітрейт: 2334 кб/с

Джерело озвучення:


Субтитри:
мова: англійська
тип: програмні (м'які)
формат: *.srt
Info
General
Unique ID : 231415982888267801199261115760300667123 (0xAE1918DBE6CE5492847AB57E665630F3)
Complete name : G:\Майбутні релізи\Train to Busan (2016) Remux 1080p [UA][Kor][Sub Eng][Hurtom].
Format :
Format version : Version 4 / Version 2
File size : 24.3 GiB
Duration : 1 h 58 min
Overall bit rate mode : Variable
Overall bit rate : 29.5 Mb/s
Movie name : Train to Busan (2016) Remux 1080p [UA][Kor][Sub Eng][Hurtom]
Encoded date : UTC 2018-06-12 15:43:35
Writing application : v9.8.0 ('Kuglblids') 64bit
Writing library : libebml v1.3.4 + v1.4.5
Cover : Yes
Attachments : cover.jpg

Video
ID : 1
Format : AVC
Format/Info : Advanced Video Codec
Format profile : [email protected]
Format settings : CABAC / 2 Ref Frames
Format settings, CABAC : Yes
Format settings, ReFrames : 2 frames
Format settings, GOP : M=1, N=10
Codec ID : V_MPEG4/ISO/AVC
Duration : 1 h 58 min
Bit rate mode : Variable
Bit rate : 26.9 Mb/s
Width : 1 920 pixels
Height : 1 080 pixels
Display aspect ratio : 16:9
Frame rate mode : Constant
Frame rate : 23.976 (24000/1001) FPS
Color space : YUV
Chroma subsampling : 4:2:0
Bit depth : 8 bits
Scan type : Progressive
Bits/(Pixel*Frame) : 0.542
Stream size : 22.2 GiB (91%)
Language : English
Default : No
Forced : No

Audio #1
ID : 2
Format : AC-3
Format/Info : Audio Coding 3
Codec ID : A_AC3
Duration : 1 h 58 min
Bit rate mode : Constant
Bit rate : 192 kb/s
Channel(s) : 2 channels
Channel positions : Front: L R
Sampling rate : 48.0 kHz
Frame rate : 31.250 FPS (1536 SPF)
Bit depth : 16 bits
Compression mode : Lossy
Stream size : 162 MiB (1%)
Title : [UA-MVO]
Language : Ukrainian
Service kind : Complete Main
Default : Yes
Forced : Yes

Audio #2
ID : 3
Format :
Format/Info : Digital Theater Systems
Format profile : MA / Core
Codec ID : A_DTS
Duration : 1 h 58 min
Bit rate mode : Variable / Constant
Bit rate : 2 334 kb/s / 1 509 kb/s
Channel(s) : 6 channels
Channel positions : Front: L C R, Side: L R, LFE
Sampling rate : 48.0 kHz
Frame rate : 93.750 FPS (512 SPF)
Bit depth : 24 bits
Compression mode : Lossless / Lossy
Stream size : 1.93 GiB (8%)
Language : Korean
Default : No
Forced : No

Text
ID : 4
Format : UTF-8
Codec ID : S_TEXT/UTF8
Codec ID/Info : UTF-8 Plain Text
Duration : 1 h 53 min
Bit rate : 22 b/s
Count of elements : 863
Stream size : 18.4 KiB (0%)
Language : English
Default : No
Forced : No

Menu
00:00:00.000 : fr:Chapitre 01
00:11:02.536 : fr:Chapitre 02
00:19:35.215 : fr:Chapitre 03
00:29:38.318 : fr:Chapitre 04
00:39:13.142 : fr:Chapitre 05
00:51:01.850 : fr:Chapitre 06
00:59:30.024 : fr:Chapitre 07
01:08:15.091 : fr:Chapitre 08
01:20:56.059 : fr:Chapitre 09
01:29:58.267 : fr:Chapitre 10
01:38:03.460 : fr:Chapitre 11
01:49:07.207 : fr:Chapitre 12
Скріншоти




Подяка пану krigg070 за доріжку та пану Ham_R за постери
Джерело: &
Особиста оцінка: 8 - мені сподобалося


Золотий реліз (завантажене не впливає на рейтинг)
 Трекер:    Зареєстрований   

Завантажити / скачати фільм українською



відео для новачків



 Зареєстрований:   2018-06-12 19:20
 Розмір:   24.31 GB 
 Оцінка фільму:   8.1/10 (Голосів: 9)
   
Ham_R 
Відео Гуртом - дизайнер
Відео Гуртом - дизайнер


З нами з: 23.04.13
Востаннє: 21.05.19
Повідомлень: 96

2018-06-12 16:43  
Можу зробити обкладинку як що актуально ?
Electroz 
Відео Гуртом - підтримка та поширення
Відео Гуртом - підтримка та поширення


З нами з: 18.09.14
Востаннє: 21.05.19
Повідомлень: 3375

2018-06-12 16:50  
Ham_R
Звісно що актуально.

bot 
робот


З нами з: 30.09.07
Востаннє: 26.05.05
Повідомлень: 21365

2018-06-12 19:20  
Тему перенесено з Анонси релізів до форуму Фільми в HD


staf777

Ham_R 
Відео Гуртом - дизайнер
Відео Гуртом - дизайнер


З нами з: 23.04.13
Востаннє: 21.05.19
Повідомлень: 96

2018-06-13 18:58  

staf777 
Відео Гуртом - підтримка та поширення
Відео Гуртом - підтримка та поширення


З нами з: 16.11.16
Востаннє: 22.05.19
Повідомлень: 2373

2018-06-13 20:10  
Дякую за постер
Oleksa9 
VIP


З нами з: 17.05.12
Востаннє: 21.05.19
Повідомлень: 349

2018-07-21 20:14  
Потяг до пусану - ті хто читали текст це вперто ігнорували... відмінювання імен теж (а так мало їх тут було для відмінювання, але принципово не відмінювалися)
перестраховщики??
щьо
У вигляді кальки було вжите пробачьте (мало бути - перепрошую)
чьортівня
подаруночьок
чьому
надзвичяйний
чюєте...

Ваш часовий пояс: GMT + 2 Години

Нова тема   Відповісти