Потяг до Пусану / Train to Busan / Busanhaeng / 부산행 (2016) 720p Ukr/Kor | Sub Eng

Нові коментарі

Нова тема   Відповісти
Автор Повідомлення
staf777 
Попереджень: 1
Попереджень: 1 


З нами з: 16.11.16
Востаннє: 21.10.18
Повідомлень: 1648

2018-06-12 12:04  
Потяг до Пусану / Train to Busan / Busanhaeng / 부산행 (2016) 720p Ukr/Kor | Sub Eng

Потяг до Пусану / Train to Busan / Busanhaeng / 부산행 (2016) 720p Ukr/Kor | Sub Eng
Альтернативний постер:



Жанр: трилер, жахи, екшн
Країна: Південна Корея



Кінокомпанія: Next Entertainment World, RedPeter Film
Режисер: Йон Сан-хо
Актори: Кон Ю, Ма Дон-сік, Чон Ю-ми, Кім Су-ан, Кім І-сон, Чхве У-щик, Ан Со-хи, Чхве Кве Хва, Чон Сік-ен, Е Су-джон, Пак Мен-нок, Кім Юль-хо, Кім Чхан-хван, Пек Ін-Гвон, Чан Хек-чин та інші

Сюжет:
Через загадкові спалахи вірусу оголошено надзвичайний стан. Швидкісний потяг-експрес в Пусан став тимчасовим притулком для тих, хто зміг вирватися з охопленого загадковою епідемією Сеула. Випадкові пасажири не припускали, що їхній квиток на цей поїзд стане щасливим, але от чи надовго — ласкаво просимо на борт і постарайтеся залишитися в живих.


Тривалість: 01:58:09
Якість: 720p
Відео:
кодек:
розмір кадру: 1280x694
бітрейт: 7376 кб/с

Аудіо # 1:
мова: українська
переклад: багатоголосий закадровий
кодек: 2.0
бітрейт: 192 кб/с

Аудіо # 2:
мова: корейська
переклад: оригінал
кодек: 5.1
бітрейт: 640 кб/с

Джерело озвучення:


Субтитри:
мова: англійська
тип: програмні (м'які)
формат: *.srt
Info
General
Unique ID : 206927971280931564096038117623174949459 (0x9BACE0ABD7F44A39AAC35D78FE066A53)
Complete name : G:\Жахи\Train to Busan (2016) 720p [UA][Kor][Sub Eng][Hurtom].
Format :
Format version : Version 4 / Version 2
File size : 6.77 GiB
Duration : 1 h 58 min
Overall bit rate : 8 210 kb/s
Movie name : Train to Busan (2016) 720p [UA][Kor][Sub Eng][Hurtom]
Encoded date : UTC 2018-06-12 08:45:48
Writing application : v9.8.0 ('Kuglblids') 64bit
Writing library : libebml v1.3.4 + v1.4.5
Cover : Yes
Attachments : cover.jpg

Video
ID : 1
Format : AVC
Format/Info : Advanced Video Codec
Format profile : [email protected]
Format settings : CABAC / 9 Ref Frames
Format settings, CABAC : Yes
Format settings, ReFrames : 9 frames
Codec ID : V_MPEG4/ISO/AVC
Duration : 1 h 58 min
Bit rate : 7 376 kb/s
Width : 1 280 pixels
Height : 694 pixels
Display aspect ratio : 1.85:1
Frame rate mode : Constant
Frame rate : 23.976 FPS
Color space : YUV
Chroma subsampling : 4:2:0
Bit depth : 8 bits
Scan type : Progressive
Bits/(Pixel*Frame) : 0.346
Stream size : 6.09 GiB (90%)
Writing library : core 142 r2431+42 c69a006 tMod [[email protected] X86_64]
Encoding settings : cabac=1 / ref=9 / deblock=1:-3:-3 / analyse=0x3:0x133 / me=umh / subme=11 / psy=1 / fade_compensate=0.00 / psy_rd=1.10:0.15 / mixed_ref=1 / me_range=64 / chroma_me=1 / trellis=2 / 8x8dct=1 / cqm=0 / deadzone=21,11 / fast_pskip=0 / chroma_qp_offset=-1 / threads=12 / lookahead_threads=3 / sliced_threads=0 / nr=0 / decimate=0 / interlaced=0 / bluray_compat=0 / constrained_intra=0 / fgo=0 / bframes=10 / b_pyramid=2 / b_adapt=2 / b_bias=0 / direct=3 / weightb=1 / open_gop=0 / weightp=2 / keyint=250 / keyint_min=23 / scenecut=40 / intra_refresh=0 / rc=crf / mbtree=0 / crf=16.5000 / qcomp=0.70 / qpmin=0:0:0 / qpmax=69:69:69 / qpstep=4 / ip_ratio=1.40 / pb_ratio=1.30 / aq=1:0.85 / aq-sensitivity=10.00 / aq-factor=1.00:1.00:1.00 / aq2=0 / aq3=0
Language : Korean
Default : Yes
Forced : No
Color range : Limited
Matrix coefficients : BT.709

Audio #1
ID : 2
Format : AC-3
Format/Info : Audio Coding 3
Codec ID : A_AC3
Duration : 1 h 58 min
Bit rate mode : Constant
Bit rate : 192 kb/s
Channel(s) : 2 channels
Channel positions : Front: L R
Sampling rate : 48.0 kHz
Frame rate : 31.250 FPS (1536 SPF)
Bit depth : 16 bits
Compression mode : Lossy
Stream size : 162 MiB (2%)
Title : [UA-MVO]
Language : Ukrainian
Service kind : Complete Main
Default : Yes
Forced : Yes

Audio #2
ID : 3
Format : AC-3
Format/Info : Audio Coding 3
Codec ID : A_AC3
Duration : 1 h 58 min
Bit rate mode : Constant
Bit rate : 640 kb/s
Channel(s) : 6 channels
Channel positions : Front: L C R, Side: L R, LFE
Sampling rate : 48.0 kHz
Frame rate : 31.250 FPS (1536 SPF)
Bit depth : 16 bits
Compression mode : Lossy
Stream size : 541 MiB (8%)
Title : Original
Language : Korean
Service kind : Complete Main
Default : No
Forced : No

Text
ID : 4
Format : UTF-8
Codec ID : S_TEXT/UTF8
Codec ID/Info : UTF-8 Plain Text
Duration : 1 h 53 min
Bit rate : 22 b/s
Count of elements : 863
Stream size : 18.6 KiB (0%)
Title : Full
Language : English
Default : No
Forced : No

Menu
00:00:00.000 : en:00:00:00.000
00:11:02.537 : en:00:11:02.537
00:19:35.216 : en:00:19:35.216
00:29:38.443 : en:00:29:38.443
00:39:13.518 : en:00:39:13.518
00:51:01.850 : en:00:51:01.850
00:59:30.025 : en:00:59:30.025
01:08:15.091 : en:01:08:15.091
01:20:56.060 : en:01:20:56.060
01:29:58.268 : en:01:29:58.268
01:38:03.544 : en:01:38:03.544
01:49:07.583 : en:01:49:07.583
Скріншоти



Подяка пану krigg070 за доріжку та пану Ham_R за постери
Джерело: &
Особиста оцінка: 8 - мені сподобалося


 Трекер:    Зареєстрований   

Завантажити / скачати фільм українською



відео для новачків



 Зареєстрований:   2018-06-12 12:04
 Розмір:   6.77 GB 
 Оцінка фільму:   8/10 (Голосів: 13)
   
areyoumetal 
Новенький


З нами з: 31.08.14
Востаннє: 13.10.18
Повідомлень: 2

2018-06-12 21:01  
Рекомендую даний фільм. Найкраще що можна знайти про зомбі.
lastbreath 
Частий відвідувач


З нами з: 02.12.15
Востаннє: 21.10.18
Повідомлень: 33

2018-06-12 23:19  
Ну не найкраще, але серед кращих точно
molineroua 
Новенький


З нами з: 20.03.15
Востаннє: 21.10.18
Повідомлень: 2

2018-06-14 00:53  
На диво це хороше кіно. Не ідеал зомбі-трешера, але варте похвали. Додивився із інтересом до самого кінця.
Pylorama 
Частий відвідувач


З нами з: 19.10.12
Востаннє: 21.10.18
Повідомлень: 39

2018-09-05 15:34  
Зміст фільму коротко: "Як дурний – то вигрібай" 6/10
Ваш часовий пояс: GMT + 2 Години

Нова тема   Відповісти