Формула 1. Сезон 2018. Етап 7. Гран-Прі Канади. Гонка (10.06.2018) IPTV 1080p

Нові коментарі

Нова тема   Відповісти
Автор Повідомлення
sergiyko.5 
VIP


З нами з: 25.02.16
Востаннє: 23.06.18
Повідомлень: 1513

2018-06-11 00:17  
Формула 1. Сезон 2018. Етап 7. Гран-Прі Канади. Гонка (10.06.2018) IPTV 1080p


Формула 1. Сезон 2018. Етап 7. Гран-Прі Канади. Гонка (10.06.2018) IPTV 1080p

Жанр: Перегони Формули 1
Країна: Канада
Телеканал: Перший автомобільний
Коментатор: Максим Подзігун

Опис:
Гонка сьомого етапу Гран-Прі Канади 2018 року.


Тривалість: 01:55:11
Якість: IPTV

Відео: кодек: розмір кадру: 1920 х 1080 бітрейт: 4454 кб/с
Аудіо: мова: українська кодек: MP2 2.0 бітрейт: 192 кб/с
Про файл:
General
Unique ID : 187809384730221932415417638910510791769 (0x8D4AC593F4E03866140FEB76BFFC7C59)
Complete name : D:\Torrents\SPORT\Formula 1\F1.2018.Race\F1.2018.07.Canada.Race.1080p.IPTV.Ukr.
Format :
Format version : Version 4 / Version 2
File size : 3.75 GiB
Duration : 1 h 55 min
Overall bit rate : 4 648 kb/s
Movie name : F1 2018 07 Canada Race 1080p IPTV by sergiyko
Encoded date : UTC 2018-06-10 21:10:35
Writing application : v23.0.0 ('The Bride Said No') 64-bit
Writing library : libebml v1.3.6 + v1.4.9

Video
ID : 1
Format : AVC
Format/Info : Advanced Video Codec
Format profile : [email protected]
Format settings : CABAC / 4 Ref Frames
Format settings, CABAC : Yes
Format settings, ReFrames : 4 frames
Codec ID : V_MPEG4/ISO/AVC
Duration : 1 h 55 min
Bit rate : 4 454 kb/s
Width : 1 920 pixels
Height : 1 080 pixels
Display aspect ratio : 16:9
Frame rate mode : Constant
Frame rate : 25.000 FPS
Standard : Component
Color space : YUV
Chroma subsampling : 4:2:0
Bit depth : 8 bits
Scan type : Progressive
Bits/(Pixel*Frame) : 0.086
Stream size : 3.59 GiB (96%)
Language : English
Default : Yes
Forced : No
Color range : Limited
Color primaries : BT.709
Transfer characteristics : BT.709
Matrix coefficients : BT.709

Audio
ID : 2
Format : MPEG Audio
Format version : Version 1
Format profile : Layer 2
Codec ID : A_MPEG/L2
Codec ID/Hint : MP2
Duration : 1 h 55 min
Bit rate mode : Constant
Bit rate : 192 kb/s
Channel(s) : 2 channels
Sampling rate : 48.0 kHz
Frame rate : 41.667 FPS (1152 SPF)
Compression mode : Lossy
Stream size : 158 MiB (4%)
Title : 1 Авто | Максим Подзігун
Language : Ukrainian
Default : Yes
Forced : No
Скріншоти:


Автор зведення: sergiyko


 Трекер:    Зареєстрований   

Завантажити / скачати торрент



відео для новачків



 Зареєстрований:   2018-06-11 00:17
 Розмір:   3.75 GB 
 Оцінка:   9.5/10 (Голосів: 19)
   
leon61 
Свій


З нами з: 09.09.08
Востаннє: 23.06.18
Повідомлень: 61

2018-06-12 18:45  
Чи є десь викладене це відео в онлайн доступі?
чи не планується ріп на 720p?

sergiyko.5 
VIP


З нами з: 25.02.16
Востаннє: 23.06.18
Повідомлень: 1513

2018-06-12 18:49  
leon61 написано:

Чи є десь викладене це відео в онлайн доступі?
чи не планується ріп на 720p?


1. Ні (від мене)
2. Ні (від мене)

Відьмачечок 
Свій


З нами з: 17.05.11
Востаннє: 25.06.18
Повідомлень: 87

2018-06-23 22:49  
sergiyko.5 вітаю, Францію сьогодні чекати від тебе?
Umbrella.Corps 
Новенький


З нами з: 09.04.17
Востаннє: 24.06.18
Повідомлень: 16

2018-06-24 12:28  
Відьмачечок
Вчора чекав квалу і недочикався, прийшлось попова качати...

Ваш часовий пояс: GMT + 2 Години

Нова тема   Відповісти