Складки часу / A Wrinkle in Time (2018) Remux 1080p Ukr/Eng | Sub Eng

Нові коментарі

Нова тема   Відповісти
Автор Повідомлення
staf777 
Попереджень: 1
Попереджень: 1 


З нами з: 16.11.16
Востаннє: 21.10.18
Повідомлень: 1648

2018-06-10 20:05  
Складки часу / A Wrinkle in Time (2018) Remux 1080p Ukr/Eng | Sub Eng

Складки часу / A Wrinkle in Time (2018) Remux 1080p Ukr/Eng | Sub Eng
Усі українські офіційні постери:














Жанр: пригодницький, сімейний, фантастика, фентезі
Країна: США



Кінокомпанія: Walt Disney Pictures
Режисер: Ава ДюВерней / Ava DuVernay
Актори: Різ Візерспун / Reese Witherspoon, Кріс Пайн / Chris Pine, Опра Вінфрі / Oprah Winfrey, Сторм Рейд / Storm Reid, Ґуґу Мбата-Ров / Gugu Mbatha-Raw, Мінді Калінґ / Mindy Kaling, Леві Міллер / Levi Miller, Дерік МакКейб / Deric McCabe, Зак Ґаліфіанакіс / Zach Galifianakis, Ровен Бланчард / Rowan Blanchard, Девід Ойелово / David Oyelowo, Майкл Пенья / Michael Peña та інші

Сюжет:
Дісней запрошує у фантастичні світи! Під час проведення експерименту батько Мег, відомий вчений, безслідно зникає. На його пошуки дівчина разом зі своїм молодшим братом і однокласником вирушають у ризиковану подорож у просторі й часі. Їй належить виконати своє призначення і зупинити темряву, що перемагає світло.
Офіційні українські трейлери:




Рейтинг MPAA: PG - рекомендується присутність батьків
Вікова категорія: 6+
Тривалість: 01:49:37
Якість: Remux 1080p
Відео:
кодек:
розмір кадру: 1920x1080
бітрейт: 31,6 Mб/с

Аудіо # 1:
мова: українська
переклад: професійний дубльований | студія LeDoyen
кодек: -HD MA 5.1
бітрейт: 3937 кб/с

Аудіо # 2:
мова: українська
переклад: професійний дубльований | студія LeDoyen
кодек: 5.1
бітрейт: 640 кб/с

Аудіо # 3:
мова: англійська
переклад: оригінал
кодек: -HD MA 7.1
бітрейт: 4757 кб/с

Субтитри # 1-2:
мова: англійська (повні, SDH)
тип: програмні (м'які)
формат: *.srt

Збережено оригінальні розділи, як на Blu-ray
Info
Код:
General
Unique ID                   : 208066757145213562056679775289737764594 (0x9C8833263523CD53768DDF2F36085EF2)
Complete name               : H:\» HD українською » Фільми в HD\A Wrinkle in Time (2018) Remux 1080p [Ukr][Eng][Sub Eng][Hurtom].
Format                      :
Format version              : Version 4 / Version 2
File size                   : 31.3 GiB
Duration                    : 1 h 49 min
Overall bit rate mode       : Variable
Overall bit rate            : 40.9 Mb/s
Movie name                  : A Wrinkle in Time (2018) Remux 1080p [Ukr][Eng][Sub Eng][Hurtom]
Encoded date                : UTC 2018-10-04 09:11:55
Writing application         : v24.0.0 ('Beyond The Pale') 64-bit
Writing library             : libebml v1.3.6 + v1.4.9
Cover                       : Yes
Attachments                 : cover.jpg

Video
ID                          : 1
Format                      : AVC
Format/Info                 : Advanced Video Codec
Format profile              : [email protected]
Format settings             : CABAC / 4 Ref Frames
Format settings, CABAC      : Yes
Format settings, ReFrames   : 4 frames
Codec ID                    : V_MPEG4/ISO/AVC
Duration                    : 1 h 49 min
Bit rate mode               : Variable
Bit rate                    : 31.6 Mb/s
Maximum bit rate            : 34.0 Mb/s
Width                       : 1 920 pixels
Height                      : 1 080 pixels
Display aspect ratio        : 16:9
Frame rate mode             : Constant
Frame rate                  : 23.976 (24000/1001) FPS
Color space                 : YUV
Chroma subsampling          : 4:2:0
Bit depth                   : 8 bits
Scan type                   : Progressive
Bits/(Pixel*Frame)          : 0.635
Stream size                 : 24.2 GiB (77%)
Language                    : English
Default                     : Yes
Forced                      : No

Audio #1
ID                          : 2
Format                      :
Format/Info                 : Digital Theater Systems
Format profile              : MA / Core
Codec ID                    : A_DTS
Duration                    : 1 h 49 min
Bit rate mode               : Variable / Constant
Bit rate                    : 3 937 kb/s / 1 509 kb/s
Channel(s)                  : 6 channels
Channel positions           : Front: L C R, Side: L R, LFE
Sampling rate               : 48.0 kHz
Frame rate                  : 93.750 FPS (512 SPF)
Bit depth                   : 24 bits
Compression mode            : Lossless / Lossy
Stream size                 : 3.01 GiB (10%)
Title                       : HD MA
Language                    : Ukrainian
Default                     : Yes
Forced                      : Yes

Audio #2
ID                          : 3
Format                      : AC-3
Format/Info                 : Audio Coding 3
Codec ID                    : A_AC3
Duration                    : 1 h 49 min
Bit rate mode               : Constant
Bit rate                    : 640 kb/s
Channel(s)                  : 6 channels
Channel positions           : Front: L C R, Side: L R, LFE
Sampling rate               : 48.0 kHz
Frame rate                  : 31.250 FPS (1536 SPF)
Bit depth                   : 16 bits
Compression mode            : Lossy
Stream size                 : 502 MiB (2%)
Title                       : 5/1
Language                    : Ukrainian
Service kind                : Complete Main
Default                     : No
Forced                      : No

Audio #3
ID                          : 4
Format                      :
Format/Info                 : Digital Theater Systems
Format profile              : MA / Core
Codec ID                    : A_DTS
Duration                    : 1 h 49 min
Bit rate mode               : Variable / Constant
Bit rate                    : 4 757 kb/s / 1 509 kb/s
Channel(s)                  : 8 channels / 6 channels
Channel positions           : Front: L C R, Side: L R, Back: L R, LFE / Front: L C R, Side: L R, LFE
Sampling rate               : 48.0 kHz
Frame rate                  : 93.750 FPS (512 SPF)
Bit depth                   : 24 bits
Compression mode            : Lossless / Lossy
Stream size                 : 3.64 GiB (12%)
Title                       : Original
Language                    : English
Default                     : No
Forced                      : No

Text #1
ID                          : 5
Format                      : UTF-8
Codec ID                    : S_TEXT/UTF8
Codec ID/Info               : UTF-8 Plain Text
Duration                    : 1 h 45 min
Bit rate                    : 46 b/s
Count of elements           : 1433
Stream size                 : 35.6 KiB (0%)
Title                       : Full
Language                    : English
Default                     : No
Forced                      : No

Text #2
ID                          : 6
Format                      : UTF-8
Codec ID                    : S_TEXT/UTF8
Codec ID/Info               : UTF-8 Plain Text
Duration                    : 1 h 46 min
Bit rate                    : 51 b/s
Count of elements           : 1597
Stream size                 : 40.7 KiB (0%)
Title                       : SDH
Language                    : English
Default                     : No
Forced                      : No

Menu
00:00:00.000                : en:00:00:00.000
00:09:39.871                : en:00:09:39.871
00:13:46.868                : en:00:13:46.868
00:18:04.083                : en:00:18:04.083
00:21:28.287                : en:00:21:28.287
00:28:32.502                : en:00:28:32.502
00:39:14.811                : en:00:39:14.811
00:48:41.252                : en:00:48:41.252
00:54:03.198                : en:00:54:03.198
01:03:04.531                : en:01:03:04.531
01:09:48.267                : en:01:09:48.267
01:19:03.197                : en:01:19:03.197
01:29:05.549                : en:01:29:05.549
01:40:03.497                : en:01:40:03.497




Підтримати купівлю інших фільмів можна тут.


Джерело: &
Подяка igor911 за допомогу у створенні реліза та Hanway за українську доріжку


Золотий реліз (завантажене не впливає на рейтинг)
 Трекер:    Зареєстрований   

Завантажити / скачати фільм українською



відео для новачків



 Зареєстрований:   2018-10-04 12:58
 Розмір:   31.32 GB 
 Оцінка фільму:   5.7/10 (Голосів: 20)
   
Інші релізи
-_-B_Е_N_D_Е_R-_- 
Забанено
Забанено


З нами з: 30.05.18
Востаннє: 24.06.18
Повідомлень: 284

2018-06-10 20:08  
Це здається для вас написали
Konfucius написано:
Прошу НІКОЛИ не переносити анонс у смітник. Замість того, щоб створювати нову тему, перенесіть його у відповідний розділ і додайте торрент.

Причина проста - Google проіндексує анонс, і, якщо він опиниться у смітнику, люди не зможуть з пошуку потрапити на ваш реліз.

Посилання на перенесення знаходиться зліва внизу сторінки.


Igor_kachynskyy 
Новенький


З нами з: 03.01.18
Востаннє: 21.10.18
Повідомлень: 9

2018-06-10 20:30  
Нарешті автор зробив то шо треба!!!!!
фільм обіцяє бути цікавим

Додано через 1 хвилину 48 секунд:

а коли можна буде скачати фільм?

staf777 
Попереджень: 1
Попереджень: 1 


З нами з: 16.11.16
Востаннє: 21.10.18
Повідомлень: 1648

2018-06-10 20:58  
Igor_kachynskyy написано:
а коли можна буде скачати фільм?

через 10 хвилин

bot 
робот


З нами з: 30.09.07
Востаннє: 26.05.05
Повідомлень: 19984

2018-06-10 21:02  
Тему перенесено з Анонси релізів до форуму Фільми в HD


staf777

PikachuUA 
Відео Гуртом - фільмокрай
Відео Гуртом - фільмокрай


З нами з: 17.01.15
Востаннє: 17.10.18
Повідомлень: 196

2018-06-10 21:10  
Був в кіно. Адекватним людям рекомендувати не буду, але під наркотичні речовини думаю те що треба. Навіть не сказав би що воно для дітей робилось
andysts 
Новенький


З нами з: 15.10.12
Востаннє: 18.09.18
Повідомлень: 4

2018-06-11 23:12  
PikachuUA
Абсолютно згідний.Кіно якесь взаглі, навіть не психоделічне, а навіть не знаю як навзати. Дивився в кінотеатрі і не знав що зі мною робиться....ну адекватом тут далеко навіть і не пахне, сценарист покурив напевно знатно

Wensun 
Свій


З нами з: 20.01.09
Востаннє: 19.10.18
Повідомлень: 109

2018-06-14 22:46  
реклама була дуже крута, а кіно нуль. навіть не тратьте часу. від діснея такого не чекав, таке враження шо режисер всьо кіно був під дією наркотичних речовин.
flytracer 
Новенький


З нами з: 02.11.08
Востаннє: 14.10.18
Повідомлень: 1

2018-07-02 01:17  
Як на мене задум був хороший, але не вийшло). Картинка хороша, акторський склад також. Основними проблемами є сценарій і діти актори. Діалоги написані погано і навіть топові (дорослі) актори не витягують. Актори діти грають вкрай погано, і це все не нормально для такою студії як дісней.
staf777 
Попереджень: 1
Попереджень: 1 


З нами з: 16.11.16
Востаннє: 21.10.18
Повідомлень: 1648

2018-07-23 22:37  
23.07.2018 реліз оновлено: замінено звук з моно на стерео 
staf777 
Попереджень: 1
Попереджень: 1 


З нами з: 16.11.16
Востаннє: 21.10.18
Повідомлень: 1648

2018-10-04 13:05  
Додав доріжку -HD MA 5.1
Ваш часовий пояс: GMT + 2 Години

Нова тема   Відповісти