Доказ життя / Proof Of Life (2000) 1080p [Open Matte] 2xUkr/Eng | Sub Eng

Нові коментарі

Нова тема   Відповісти
Автор Повідомлення
Anonymous 







2018-06-10 18:31  
Доказ життя / Proof Of Life (2000) 1080p [Open Matte] 2xUkr/Eng | Sub Eng


Інший постер

Жанр: бойовик, трилер, драма
Країна: США



Кінокомпанія: Castle Rock Entertainment, Bel Air Entertainment, Anvil Films
Режисер: Тейлор Гекфорд / Taylor Hackford
Актори: Меґ Раян / Meg Ryan, Рассел Кроу / Russell Crowe, Девід Морс / David Morse, Памела Рід / Pamela Reed, Девід Карузо / David Caruso, Ентоні Гілд / Anthony Heald, Стенлі Андерсон / Stanley Anderson, Ґотфрід Йон / Gottfried John, Елун Армстронґ / Alun Armstrong , Майкл Кітчен / Michael Kitchen та інші

Сюжет:
Американського інженера Пітера Боумена викрадено у латиноамериканській країні. За його звільнення вимагають викуп у 3 мільйони доларів. Незважаючи на те, що його дружині Еліс відмовляють у допомозі і власник фірми, у якій працює Пітер, і страхова компанія, вона вирішує не відмовлятися від боротьби за життя чоловіка. Її головна мета - якнайшвидше повернути його додому, але вона розуміє, що самотужки їй не впоратися. Експерт компанії "Викрадення та Викуп" Террі Торн - єдина надія Еліс на порятунок Пітера. Він береться за роботу, але невдовзі розуміє, що справа значно більш заплутана, ніж здавалося спочатку...


Тривалість: 02:15:20
Якість: 1080p [Open Matte] [Amazon Video]
Відео:
кодек:
розмір кадру: 1920x1080
бітрейт: 10.2 Мб/с

Аудіо # 1:
мова: українська
переклад: двоголосий закадровий
кодек: 2.0
бітрейт: 192 кб/с
примітка: на одному невеликому проміжку накладено озвучення К1
Інформація про озвучення
Аудіо # 2:
мова: українська
переклад: багатоголосий закадровий
кодек: 2.0
бітрейт: 192 кб/с

Аудіо # 3:
мова: англійська
переклад: оригінал
кодек: E- 5.1
бітрейт: 384 кб/с

Аудіо # 4: (Commentary)
мова: англійська
переклад: оригінал
кодек: 2.0
бітрейт: 192 кб/с

Субтитри: (SDH)
мова: англійська
тип: програмні (м'які)
формат: *.srt
Info
General
Unique ID : 255557236840278380579291729584259573994 (0xC0428893089CA43EDE30C41802EFA8EA)
Format :
Format version : Version 4 / Version 2
File size : 10.5 GiB
Duration : 2 h 15 min
Overall bit rate mode : Variable
Overall bit rate : 11.1 Mb/s
Movie name : Доказ життя / Proof Of Life (2000) [Open Matte] [Amazon] 1080p [2xUkr.Eng Sub.Eng] [Hurtom]
Encoded date : UTC 2018-06-10 13:27:00
Writing application : v21.0.0 ('Tardigrades Will Inherit The Earth') 64-bit
Writing library : libebml v1.3.5 + v1.4.8
Cover : Yes
Attachments : Cover.jpg / Cover2.jpg

Video
ID : 1
Format : AVC
Format/Info : Advanced Video Codec
Format profile : [email protected]
Format settings : CABAC / 4 Ref Frames
Format settings, CABAC : Yes
Format settings, RefFrames : 4 frames
Codec ID : V_MPEG4/ISO/AVC
Duration : 2 h 15 min
Bit rate mode : Variable
Bit rate : 10.2 Mb/s
Maximum bit rate : 15.0 Mb/s
Width : 1 920 pixels
Height : 1 080 pixels
Display aspect ratio : 16:9
Frame rate mode : Constant
Frame rate : 23.976 (24000/1001) FPS
Color space : YUV
Chroma subsampling : 4:2:0
Bit depth : 8 bits
Scan type : Progressive
Bits/(Pixel*Frame) : 0.205
Stream size : 9.63 GiB (91%)
Title : Proof Of Life (2000) [Open Matte] [Amazon] 1080p [2xUkr.Eng Sub.Eng] [Hurtom]
Writing library : core 148 r2623 d5b2374
Encoding settings : cabac=1 / ref=4 / deblock=1:-1:-1 / analyse=0x3:0x133 / me=umh / subme=9 / psy=1 / psy_rd=1.00:0.15 / mixed_ref=1 / me_range=24 / chroma_me=1 / trellis=2 / 8x8dct=1 / cqm=0 / deadzone=21,11 / fast_pskip=1 / chroma_qp_offset=-3 / threads=34 / lookahead_threads=5 / sliced_threads=0 / nr=150 / decimate=1 / interlaced=0 / bluray_compat=0 / constrained_intra=0 / bframes=8 / b_pyramid=2 / b_adapt=2 / b_bias=0 / direct=3 / weightb=1 / open_gop=0 / weightp=2 / keyint=120 / keyint_min=61 / scenecut=0 / intra_refresh=0 / rc_lookahead=120 / rc=crf / mbtree=1 / crf=18.0 / qcomp=0.60 / qpmin=0 / qpmax=69 / qpstep=4 / vbv_maxrate=15000 / vbv_bufsize=31250 / crf_max=0.0 / nal_hrd=vbr / filler=0 / ip_ratio=1.40 / aq=3:1.00
Language : English
Default : Yes
Forced : No
Color range : Limited
Color primaries : BT.709
Transfer characteristics : BT.709
Matrix coefficients : BT.709

Audio #1
ID : 2
Format : AC-3
Format/Info : Audio Coding 3
Codec ID : A_AC3
Duration : 2 h 15 min
Bit rate mode : Constant
Bit rate : 192 kb/s
Channel(s) : 2 channels
Channel positions : Front: L R
Sampling rate : 48.0 kHz
Frame rate : 31.250 FPS (1536 SPF)
Bit depth : 16 bits
Compression mode : Lossy
Stream size : 186 MiB (2%)
Title : DVO | ICTV | 2.0 | 192 kbps
Language : Ukrainian
Service kind : Complete Main
Default : Yes
Forced : No

Audio #2
ID : 3
Format : AC-3
Format/Info : Audio Coding 3
Codec ID : A_AC3
Duration : 2 h 15 min
Bit rate mode : Constant
Bit rate : 192 kb/s
Channel(s) : 2 channels
Channel positions : Front: L R
Sampling rate : 48.0 kHz
Frame rate : 31.250 FPS (1536 SPF)
Bit depth : 16 bits
Compression mode : Lossy
Stream size : 186 MiB (2%)
Title : MVO | K1 | 2.0 | 192 kbps
Language : Ukrainian
Service kind : Complete Main
Default : No
Forced : No

Audio #3
ID : 4
Format : AC-3
Format/Info : Audio Coding 3
Codec ID : A_AC3
Duration : 2 h 15 min
Bit rate mode : Constant
Bit rate : 384 kb/s
Channel(s) : 6 channels
Channel positions : Front: L C R, Side: L R, LFE
Sampling rate : 48.0 kHz
Frame rate : 31.250 FPS (1536 SPF)
Bit depth : 16 bits
Compression mode : Lossy
Stream size : 372 MiB (3%)
Title : Original
Language : English
Service kind : Complete Main
Default : No
Forced : No

Audio #4
ID : 5
Format : AC-3
Format/Info : Audio Coding 3
Codec ID : A_AC3
Duration : 2 h 15 min
Bit rate mode : Constant
Bit rate : 192 kb/s
Channel(s) : 2 channels
Channel positions : Front: L R
Sampling rate : 48.0 kHz
Frame rate : 31.250 FPS (1536 SPF)
Bit depth : 16 bits
Compression mode : Lossy
Stream size : 186 MiB (2%)
Title : Original (Commentary)
Language : English
Service kind : Complete Main
Default : No
Forced : No

Text
ID : 6
Format : UTF-8
Codec ID : S_TEXT/UTF8
Codec ID/Info : UTF-8 Plain Text
Duration : 2 h 7 min
Bit rate : 55 b/s
Count of elements : 1504
Stream size : 52.1 KiB (0%)
Title : Original (SDH)
Language : English
Default : No
Forced : No

Menu
00:00:00.000 : en:(Unnamed scene)
00:00:42.000 : en:(Unnamed scene)
00:06:53.000 : en:(Unnamed scene)
00:08:54.000 : en:(Unnamed scene)
00:12:36.000 : en:(Unnamed scene)
00:16:03.000 : en:(Unnamed scene)
00:19:54.000 : en:(Unnamed scene)
00:22:51.000 : en:(Unnamed scene)
00:26:55.000 : en:(Unnamed scene)
00:31:30.000 : en:(Unnamed scene)
00:35:04.000 : en:(Unnamed scene)
00:37:29.000 : en:(Unnamed scene)
00:40:12.000 : en:(Unnamed scene)
00:43:06.000 : en:(Unnamed scene)
00:46:27.000 : en:(Unnamed scene)
00:49:18.000 : en:(Unnamed scene)
00:54:20.000 : en:(Unnamed scene)
00:58:10.000 : en:(Unnamed scene)
01:02:25.000 : en:(Unnamed scene)
01:04:25.000 : en:(Unnamed scene)
01:06:33.000 : en:(Unnamed scene)
01:09:12.000 : en:(Unnamed scene)
01:12:36.000 : en:(Unnamed scene)
01:16:09.000 : en:(Unnamed scene)
01:17:14.000 : en:(Unnamed scene)
01:22:32.000 : en:(Unnamed scene)
01:24:49.000 : en:(Unnamed scene)
01:28:13.000 : en:(Unnamed scene)
01:31:58.000 : en:(Unnamed scene)
01:34:50.000 : en:(Unnamed scene)
01:37:27.000 : en:(Unnamed scene)
01:40:54.000 : en:(Unnamed scene)
01:45:03.000 : en:(Unnamed scene)
01:46:43.000 : en:(Unnamed scene)
01:50:39.000 : en:(Unnamed scene)
01:54:12.000 : en:(Unnamed scene)
01:57:54.000 : en:(Unnamed scene)
02:00:38.000 : en:(Unnamed scene)
02:04:19.000 : en:(Unnamed scene)
02:09:11.000 : en:(Unnamed scene)
Скріншоти











Джерело: &
Особиста оцінка: 0 - не дивився
Подяки:
п.РОМЕО за запис звуку # 1.
п.??? за запис звуку # 2".
п.Soyer та п.omm за зведення звуку та опис.
п.??? за постер.

R - рейтинг стрічки, встановлений Американською асоціацією кінокомпаній

MPAA, англ. Motion Picture Association of America - Американська асоціація кінокомпаній

Рейтинг R — Restricted
Підлітки до 18 років допускаються на фільм тільки у супроводі одного з батьків, або їхнього законного представника.

Обмеження — до 18 років потрібний супровід одного з батьків або дорослого опікуна (вік може змінюватися в деяких регіонах). Даний рейтинг показує, що оціночна комісія вирішила, що деякий матеріал цього фільму призначається для дорослих. Батьки повинні більше дізнатися про фільм перш, ніж узяти на його перегляд дітей. Рейтинг R також може бути призначений через використовувану у фільмі мову, теми насильства, сексу або зображення вживання наркотиків.


Не забуваємо дякувати!


Срібний реліз (на рейтинг впливає 50% завантаженого)
 Трекер:    Зареєстрований   

Завантажити / скачати фільм українською



відео для новачків



 Зареєстрований:   2018-06-10 18:31
 Розмір:   10.54 GB 
 Оцінка фільму:   9.3/10 (Голосів: 4)
   
Інші релізи
   Доказ життя / Proof Of Life (2000) 2xUkr omm  2 / 0   1.46 GB   2014-12-23 16:54 
   Доказ життя / Proof Of Life (2000) Soyer  2 / 0   2.05 GB   2009-12-19 08:08 
21jumpstreet 
VIP


З нами з: 03.07.12
Востаннє: 11.12.19
Повідомлень: 721

2019-03-15 19:45  
Можна менше розмір?
Ваш часовий пояс: GMT + 2 Години

Нова тема   Відповісти