Пташка на дроті (Пташка на проводі) / Bird on a Wire (1990) 1080p [Open Matte] 3xUkr/Eng | Sub Eng

Нові коментарі

Нова тема   Відповісти
Автор Повідомлення
Anonymous 







2018-06-10 19:31  
Пташка на дроті (Пташка на проводі) / Bird on a Wire (1990) 1080p [Open Matte] 3xUkr/Eng | Sub Eng


Інший постер


Жанр: бойовик, трилер, пригодницький
Країна: США



Кінокомпанія: Universal Pictures
Режисер: Джон Бедем
Актори: Мел Гібсон, Голді Хоун, Девід Керадайн, Біл Дьюк, Стівен Тоболовські, Джоан Северанс, Гарі Цезар, Джеф Корі, Алекс Бруханські

Сюжет:
Справи Ріка Джерміна, що жив таємним життям, за спеціально розробленою ФБР програмою захисту свідків, складаються не кращим чином. Справа в тому, що п'ятнадцять років тому він дав покази проти копа, що добуткував торговлею наркотиками. Це дозволило посадовити пройдисвіта за грати. Злодій, відсидівши строк, думає про помсту "стукачеві" й розпочинає полювання на Джерміна. Зовсім випадково Рік натрапляє на Мерієн Ґрейвз, свою колишню наречену. Мерієн, звісно, впізнала Ріка, що поліпшило задачу злодіям, які переслідують Джерміна по п'ятах. Тепер колишнім закоханим залишається разом утікати від вбивць, та саме це допомагає їм повернути втрачене кохання.


Тривалість: 01:50:59
Якість: 1080p [Open Matte] [Cinemax & Amazon Video]
Відео:
кодек:
розмір кадру: 1920x1080
бітрейт: 14.7 Мб/с

Аудіо # 1:
мова: українська
переклад: багатоголосий закадровий
кодек: 2.0
бітрейт: 192 кб/с

Аудіо # 2:
мова: українська
переклад: багатоголосий закадровий
кодек: 2.0
бітрейт: 192 кб/с

Аудіо # 3: /
мова: українська
переклад: багатоголосий закадровий
кодек: 2.0
бітрейт: 192 кб/с
Інформація про озвучення
Переклад і озвучення "Так треба продакшн" для каналу ТРК "Україна"
Аудіо # 4:
мова: англійська
переклад: оригінал
кодек: E- 2.0
бітрейт: 224 кб/с

Субтитри: (SDH)
мова: англійська
тип: програмні (м'які)
формат: *.srt
Info
General
Unique ID : 323044987666585782707707379216324206953 (0xF30833965D47B2B699F108C0CD6BA169)
Format :
Format version : Version 4 / Version 2
File size : 12.0 GiB
Duration : 1 h 50 min
Overall bit rate mode : Variable
Overall bit rate : 15.5 Mb/s
Movie name : Пташка на дроті (Пташка на проводі) / Bird on a Wire (1990) [Open Matte] [Cinemax & Amazon] 1080p [3xUkr.Eng Sub.Eng] [Hurtom]
Encoded date : UTC 2018-06-09 21:54:52
Writing application : v21.0.0 ('Tardigrades Will Inherit The Earth') 64-bit
Writing library : libebml v1.3.5 + v1.4.8
Cover : Yes
Attachments : Cover.jpg / Cover2.jpg

Video
ID : 1
Format : AVC
Format/Info : Advanced Video Codec
Format profile : [email protected]
Format settings : CABAC / 4 Ref Frames
Format settings, CABAC : Yes
Format settings, RefFrames : 4 frames
Codec ID : V_MPEG4/ISO/AVC
Duration : 1 h 50 min
Bit rate mode : Variable
Bit rate : 14.7 Mb/s
Maximum bit rate : 15.0 Mb/s
Width : 1 920 pixels
Height : 1 080 pixels
Display aspect ratio : 16:9
Frame rate mode : Constant
Frame rate : 23.976 (24000/1001) FPS
Color space : YUV
Chroma subsampling : 4:2:0
Bit depth : 8 bits
Scan type : Progressive
Bits/(Pixel*Frame) : 0.295
Stream size : 11.4 GiB (95%)
Title : Bird on a Wire (1990) [Open Matte] [Cinemax & Amazon] 1080p [3xUkr.Eng Sub.Eng] [Hurtom]
Language : English
Default : Yes
Forced : No
Color range : Limited
Color primaries : BT.709
Transfer characteristics : BT.709
Matrix coefficients : BT.709

Audio #1
ID : 2
Format : AC-3
Format/Info : Audio Coding 3
Codec ID : A_AC3
Duration : 1 h 50 min
Bit rate mode : Constant
Bit rate : 192 kb/s
Channel(s) : 2 channels
Channel positions : Front: L R
Sampling rate : 48.0 kHz
Frame rate : 31.250 FPS (1536 SPF)
Bit depth : 16 bits
Compression mode : Lossy
Stream size : 152 MiB (1%)
Title : MVO | ICTV | 2.0 | 192 kbps
Language : Ukrainian
Service kind : Complete Main
Default : Yes
Forced : No

Audio #2
ID : 3
Format : AC-3
Format/Info : Audio Coding 3
Codec ID : A_AC3
Duration : 1 h 50 min
Bit rate mode : Constant
Bit rate : 192 kb/s
Channel(s) : 2 channels
Channel positions : Front: L R
Sampling rate : 48.0 kHz
Frame rate : 31.250 FPS (1536 SPF)
Bit depth : 16 bits
Compression mode : Lossy
Stream size : 152 MiB (1%)
Title : MVO | Cine+ | 2.0 | 192 kbps
Language : Ukrainian
Service kind : Complete Main
Default : No
Forced : No

Audio #3
ID : 4
Format : AC-3
Format/Info : Audio Coding 3
Codec ID : A_AC3
Duration : 1 h 50 min
Bit rate mode : Constant
Bit rate : 192 kb/s
Channel(s) : 2 channels
Channel positions : Front: L R
Sampling rate : 48.0 kHz
Frame rate : 31.250 FPS (1536 SPF)
Bit depth : 16 bits
Compression mode : Lossy
Stream size : 152 MiB (1%)
Title : MVO | NLO-TV / TTP for TRK ''Ukraine'' | 2.0 | 192 kbps
Language : Ukrainian
Service kind : Complete Main
Default : No
Forced : No

Audio #4
ID : 5
Format : E-AC-3
Format/Info : Enhanced Audio Coding 3
Codec ID : A_EAC3
Duration : 1 h 50 min
Bit rate mode : Constant
Bit rate : 224 kb/s
Channel(s) : 2 channels
Channel positions : Front: L R
Sampling rate : 48.0 kHz
Frame rate : 187.500 FPS (256 SPF)
Compression mode : Lossy
Stream size : 177 MiB (1%)
Title : Original
Language : English
Service kind : Complete Main
Default : No
Forced : No

Text
ID : 6
Format : UTF-8
Codec ID : S_TEXT/UTF8
Codec ID/Info : UTF-8 Plain Text
Duration : 1 h 49 min
Bit rate : 59 b/s
Count of elements : 1929
Stream size : 47.6 KiB (0%)
Title : Original (SDH)
Language : English
Default : No
Forced : No
Скріншоти













Джерело: &
Особиста оцінка: 0 - не дивився
Подяки:
п.РОМЕО за запис звуку з ICTV та НЛО-ТБ
п.Sando7 за запис звуку з Cine+
п.rooster за опис та синхронізацію
п.Arsenfpu за синхронізацію
п.Lazzarus за постер

PG-13 - рейтинг стрічки, встановлений Американською асоціацією кінокомпаній

MPAA, англ. Motion Picture Association of America - Американська асоціація кінокомпаній

Рейтинг PG-13 — Parents strongly cautioned
Діти до 13 років допускаються на фільм тільки з батьками.

Настійне застереження батькам. Деякий матеріал може бути недоречним для перегляду дітей до 13 років. Даний рейтинг показує, що оцінений фільм може непідходити для дітей. Батьки повинні бути особливо обережні, дозволяючи своїм маленьким дітям перегляд. Грубе або тривале насильство відсутнє; сексуальна орієнтація на наготу відсутня; деякі сцени вживання наркотиків можуть бути присутніми; можна почути одиничні вживання грубої сексуальної лексики.


Не забуваємо дякувати!


Срібний реліз (на рейтинг впливає 50% завантаженого)
 Трекер:    Зареєстрований   

Завантажити / скачати фільм українською



відео для новачків



 Зареєстрований:   2018-06-10 19:31
 Розмір:   11.98 GB 
 Оцінка фільму:   10/10 (Голосів: 4)
   
Ваш часовий пояс: GMT + 2 Години

Нова тема   Відповісти