З любов'ю, Саймон / Love, Simon (2018) (1080p) Eng | sub Ukr

Нові коментарі

Нова тема   Відповісти
Автор Повідомлення
ukrrku 
Новенький


З нами з: 24.03.09
Востаннє: 19.06.18
Повідомлень: 9

2018-06-10 15:44  
З любов'ю, Саймон / Love, Simon (2018) (1080p) Eng | sub Ukr

З любов'ю, Саймон / Love, Simon (2018) (1080p) Eng | sub Ukr


Жанр: драма, мелодрама, комедія
Країна: США



Кінокомпанія: Fox 2000 Pictures, New Leaf Literary & Media, Temple Hill Entertainment, Twisted Media
Режисер: Грег Берланті
Актори: Нік Дж. Робінсон, Джош Дюамель, Дженніфер Гарнер, Кетрін Ленгфорд, Таліта Бейтман, Александра Шипп, Майлс Хейзер, Кейнан Лонсдейл, Логан Міллер, Тоні Хейл

Сюжет:
Старшокласник Саймон приховує від друзів свою гомосексуальність, але його листування з анонімним коханим потрапляє в чужі руки. Шкільний «клоун» Мартін загрожує викрити Саймона, якщо той не допоможе йому зав'язати роман з місцевою красунею.


Тривалість: 01:50:17
Якість:
Відео:
кодек:
розмір кадру: 1920x802
бітрейт: 4569 кб/с

Аудіо:
мова: англійська
переклад: оригінал
кодек: 5.1
бітрейт: 384 кб/с

Субтитри:
мова: українська | iTunes
тип: програмні (м'які)
формат: *.srt
Скріншоти
Info

General
Unique ID : 6701950137957374615852928115345701522 (0x50ABFA73DBF6DF185209B3AFA1BBA92)
Complete name : Love, Simon (2018).1080.H264 by Kissy.
Format :
Format version : Version 4 / Version 2
File size : 3.79 GiB
Duration : 1 h 50 min
Overall bit rate : 4 921 kb/s
Encoded date : UTC 2018-06-10 12:28:19
Writing application : v20.0.0 ('I Am The Sun') 64-bit
Writing library : libebml v1.3.5 + v1.4.8

Video
ID : 1
Format : AVC
Format/Info : Advanced Video Codec
Format profile : [email protected]
Format settings : CABAC / 5 Ref Frames
Format settings, CABAC : Yes
Format settings, ReFrames : 5 frames
Codec ID : V_MPEG4/ISO/AVC
Duration : 1 h 50 min
Bit rate : 4 536 kb/s
Width : 1 920 pixels
Height : 802 pixels
Display aspect ratio : 2.40:1
Frame rate mode : Constant
Frame rate : 23.976 FPS
Color space : YUV
Chroma subsampling : 4:2:0
Bit depth : 8 bits
Scan type : Progressive
Bits/(Pixel*Frame) : 0.123
Stream size : 3.49 GiB (92%)
Language : English
Default : Yes
Forced : No
Color range : Limited
Color primaries : BT.709
Transfer characteristics : BT.709
Matrix coefficients : BT.709

Audio
ID : 2
Format : AC-3
Format/Info : Audio Coding 3
Codec ID : A_AC3
Duration : 1 h 49 min
Bit rate mode : Constant
Bit rate : 384 kb/s
Channel(s) : 6 channels
Channel positions : Front: L C R, Side: L R, LFE
Sampling rate : 48.0 kHz
Frame rate : 31.250 FPS (1536 SPF)
Bit depth : 16 bits
Compression mode : Lossy
Stream size : 301 MiB (8%)
Language : English
Service kind : Complete Main
Default : Yes
Forced : No

Text
ID : 3
Format : UTF-8
Codec ID : S_TEXT/UTF8
Codec ID/Info : UTF-8 Plain Text
Duration : 1 h 48 min
Bit rate : 106 b/s
Count of elements : 1827
Stream size : 85.2 KiB (0%)
Language : Ukrainian
Default : No
Forced : No

Menu
00:00:00.000 : en:Chapter 01
00:04:14.796 : en:Chapter 02
00:08:40.061 : en:Chapter 03
00:13:52.123 : en:Chapter 04
00:18:05.042 : en:Chapter 05
00:25:39.329 : en:Chapter 06
00:29:26.139 : en:Chapter 07
00:33:53.698 : en:Chapter 08
00:42:04.438 : en:Chapter 09
00:47:47.948 : en:Chapter 10
00:54:16.044 : en:Chapter 11
00:59:25.436 : en:Chapter 12
01:02:50.390 : en:Chapter 13
01:05:42.145 : en:Chapter 14
01:09:56.399 : en:Chapter 15
01:17:12.501 : en:Chapter 16
01:20:04.673 : en:Chapter 17
01:22:23.687 : en:Chapter 18
01:24:28.561 : en:Chapter 19
01:27:53.849 : en:Chapter 20
01:32:36.631 : en:Chapter 21
01:38:18.431 : en:Chapter 22
01:41:14.190 : en:Chapter 23
01:45:46.337 : en:Chapter 24
Джерело:
Особиста оцінка: 8 - мені сподобалося


 Трекер:    Зареєстрований   

Завантажити / скачати фільм українською



відео для новачків



 Зареєстрований:   2018-06-10 15:44
 Розмір:   3.79 GB 
 Оцінка фільму:   8.9/10 (Голосів: 7)
   
leicheman 
Відео Гуртом - підтримка та поширення
Відео Гуртом - підтримка та поширення


З нами з: 03.07.14
Востаннє: 20.06.18
Повідомлень: 2334

2018-06-10 15:54  
О, Ханна Бейкер. Wide grin
Electroz 
Відео Гуртом - підтримка та поширення
Відео Гуртом - підтримка та поширення


З нами з: 18.09.14
Востаннє: 20.06.18
Повідомлень: 2759

2018-06-10 16:32  
До цього фільму буде офіційний дубляж + субтитри за 5 днів.
11FrYkT 
Модератор відео


З нами з: 20.02.11
Востаннє: 20.06.18
Повідомлень: 4718

2018-06-11 09:35  
ukrrku написано:

Субтитри:
мова: українська
тип: програмні (м'які)


вказати формат і джерело субтитрів
Додайте Медіаінфо і хоч 1 скріншот з субтитрами

GoDLiKeR20 
Свій


З нами з: 21.06.13
Востаннє: 18.06.18
Повідомлень: 54

2018-06-11 09:38  
Хоча фільм має не дуже реалістичний і скомканий фінал, але у загальному образі дуже добротне та якісне кіно: піднімає настрій, смішить, драматизує.
ukrrku 
Новенький


З нами з: 24.03.09
Востаннє: 19.06.18
Повідомлень: 9

2018-06-11 11:26  
Фільм по тону нагадує серіал. Що не дивно з огляду досвіду режисера
NickT 
Новенький


З нами з: 29.04.17
Востаннє: 19.06.18
Повідомлень: 7

2018-06-13 11:06  
На півгодини мене вистачило тільки. Не цікаво зовсім.
MarthaBereza 
Новенький


З нами з: 26.10.13
Востаннє: 19.06.18
Повідомлень: 3

2018-06-13 19:01  
Поставте хтось на роздачу, будь ласка. Вже давно чекаю на цей фільм, а тепер завантажити не можу Sad (1)
ukrrku 
Новенький


З нами з: 24.03.09
Востаннє: 19.06.18
Повідомлень: 9

2018-06-14 17:08  
MarthaBereza, принаймі я вчора весь день і ніч був на роздачі
Ваш часовий пояс: GMT + 2 Години

Нова тема   Відповісти