Анігіляція / Annihilation (2018) 1080p H.265 Ukr/Eng | Sub Ukr/Eng

Нові коментарі

Нова тема   Відповісти
Автор Повідомлення
ukr_anonymous 
Попереджень: 1
Попереджень: 1 


З нами з: 16.04.18
Востаннє: 14.12.18
Повідомлень: 231

2018-06-10 14:18  
Анігіляція / Annihilation (2018) 1080p H.265 Ukr/Eng | Sub Ukr/Eng

Анігіляція / Annihilation (2018) 1080p H.265 Ukr/Eng | Sub Ukr/Eng

Жанр: трилер, фантастика
Країна: США, Велика Британія



Кінокомпанія: DNA Films, Paramount Pictures, Scott Rudin Productions
Режисер: Алекс Ґарленд
Актори: Наталі Портман, Дженніфер Джейсон Лі, Тесса Томпсон, Джина Родрігез, Оскар Айзек, Соноя Мідзуно, Тува Новотни, Космо Джарвіс та інші

Сюжет:
Ніхто не знає, звідки взялася Зона Ікс — смертельно небезпечна територія, що кишить аномальними явищами. Там не бігають чудовиська, звідти не приносять трофеїв, і мисливці за наживою там не промишляють. Таємна урядова організація відправляє в Зону одну дослідницьку експедицію за іншою, але найчастіше ті не повертаються, або повертаються, але невловимо і страшно змінившись. Чи зможе нова, дванадцята експедиція в Зону домогтися того, що не вдалося попередникам і розкрити таємниці цього проклятого місця?


Тривалість: 01:55:26
Якість:
Відео:
кодек: H.265 (HEVC)
розмір кадру: 1920 х 804
бітрейт: 4 911 кб/с
бітова глибина: 10 біт
Увага! Перед завантаженням переконайтесь, що ваш пристрій відтворення (та/або ПЗ) підтримує H.265 (HEVC)

Аудіо # 1:
мова: українська
переклад: багатоголосий закадровий
кодек: 5.1
бітрейт: 384 кб/с

Аудіо # 2:
мова: англійська
переклад: оригінал
кодек: 5.1
бітрейт: 384 кб/с

Субтитри # 1:
мова: українська (Full)
тип: програмні (м'які)
формат: *.srt

Субтитри # 2-3:
мова: англійська (Full, SHD)
тип: програмні (м'які)
формат: *.srt
Info
General
Unique ID : 217023418065481009995372708556272001308 (0xA34530A077FC64EACC8E6D9263A3611C)
Complete name : E:\video\Annihilation (2018) 1080p H.265 [UKR_ENG].
Format :
Format version : Version 4 / Version 2
File size : 4.57 GiB
Duration : 1 h 55 min
Overall bit rate : 5 663 kb/s
Movie name : Annihilation
Encoded date : UTC 2018-06-10 12:08:37
Writing application : v22.0.0 ('At The End Of The World') 64-bit
Writing library : libebml v1.3.5 + v1.4.8
Cover : Yes
Attachments : cover.jpg

Video
ID : 1
Format : HEVC
Format/Info : High Efficiency Video Coding
Format profile : Main [email protected]@Main
Codec ID : V_MPEGH/ISO/HEVC
Duration : 1 h 55 min
Bit rate : 4 911 kb/s
Width : 1 920 pixels
Height : 804 pixels
Display aspect ratio : 2.40:1
Frame rate mode : Constant
Frame rate : 23.976 (24000/1001) FPS
Color space : YUV
Chroma subsampling : 4:2:0
Bit depth : 10 bits
Bits/(Pixel*Frame) : 0.133
Stream size : 3.95 GiB (86%)
Writing library : x265 2.8+1-478bfe2b7673:[Windows][GCC 7.3.0][64 bit] 10bit
Encoding settings : cpuid=1111039 / frame-threads=3 / numa-pools=8 / wpp / no-pmode / no-pme / no-psnr / no-ssim / log-level=2 / input-csp=1 / input-res=1920x804 / interlace=0 / total-frames=165445 / level-idc=0 / high-tier=1 / uhd-bd=0 / ref=4 / no-allow-non-conformance / no-repeat-headers / annexb / no-aud / no-hrd / info / hash=0 / no-temporal-layers / open-gop / min-keyint=23 / keyint=250 / gop-lookahead=0 / bframes=4 / b-adapt=2 / b-pyramid / bframe-bias=0 / rc-lookahead=25 / lookahead-slices=4 / scenecut=40 / radl=0 / no-intra-refresh / ctu=64 / min-cu-size=8 / rect / no-amp / max-tu-size=32 / tu-inter-depth=1 / tu-intra-depth=1 / limit-tu=0 / rdoq-level=2 / dynamic-rd=0.00 / no-ssim-rd / signhide / no-tskip / nr-intra=0 / nr-inter=0 / no-constrained-intra / strong-intra-smoothing / max-merge=3 / limit-refs=3 / limit-modes / me=3 / subme=3 / merange=57 / temporal-mvp / weightp / no-weightb / no-analyze-src-pics / deblock=0:0 / sao / no-sao-non-deblock / rd=4 / no-early-skip / rskip / no-fast-intra / no-tskip-fast / no-cu-lossless / no-b-intra / no-splitrd-skip / rdpenalty=0 / psy-rd=2.00 / psy-rdoq=1.00 / no-rd-refine / no-lossless / cbqpoffs=0 / crqpoffs=0 / rc=crf / crf=18.0 / qcomp=0.60 / qpstep=4 / stats-write=0 / stats-read=0 / ipratio=1.40 / pbratio=1.30 / aq-mode=3 / aq-strength=1.00 / cutree / zone-count=0 / no-strict-cbr / qg-size=32 / no-rc-grain / qpmax=69 / qpmin=0 / no-const-vbv / sar=0 / overscan=0 / videoformat=5 / range=0 / colorprim=2 / transfer=2 / colormatrix=2 / chromaloc=0 / display-window=0 / max-cll=0,0 / min-luma=0 / max-luma=1023 / log2-max-poc-lsb=8 / vui-timing-info / vui-hrd-info / slices=1 / no-opt-qp-pps / no-opt-ref-list-length-pps / no-multi-pass-opt-rps / scenecut-bias=0.05 / no-opt-cu-delta-qp / aq-motion / no-hdr / no-hdr-opt / no-dhdr10-opt / no-idr-recovery-sei / analysis-reuse-level=5 / scale-factor=0 / refine-intra=0 / refine-inter=0 / refine-mv=0 / no-limit-sao / ctu-info=0 / no-lowpass-dct / refine-mv-type=0 / copy-pic=1 / max-ausize-factor=1.0 / no-dynamic-refine / no-single-sei
Default : Yes
Forced : No

Audio #1
ID : 2
Format : AC-3
Format/Info : Audio Coding 3
Codec ID : A_AC3
Duration : 1 h 55 min
Bit rate mode : Constant
Bit rate : 384 kb/s
Channel(s) : 6 channels
Channel positions : Front: L C R, Side: L R, LFE
Sampling rate : 48.0 kHz
Frame rate : 31.250 FPS (1536 SPF)
Bit depth : 16 bits
Compression mode : Lossy
Delay relative to video : 2 s 0 ms
Stream size : 317 MiB (7%)
Title : 5.1 @ 384 kbps - MVO, НеЗупиняйПродакшн
Language : Ukrainian
Service kind : Complete Main
Default : No
Forced : No

Audio #2
ID : 3
Format : AC-3
Format/Info : Audio Coding 3
Codec ID : A_AC3
Duration : 1 h 55 min
Bit rate mode : Constant
Bit rate : 384 kb/s
Channel(s) : 6 channels
Channel positions : Front: L C R, Side: L R, LFE
Sampling rate : 48.0 kHz
Frame rate : 31.250 FPS (1536 SPF)
Bit depth : 16 bits
Compression mode : Lossy
Delay relative to video : 2 s 0 ms
Stream size : 317 MiB (7%)
Title : 5.1 @ 384 kbps - Original
Language : English
Service kind : Complete Main
Default : No
Forced : No

Text #1
ID : 4
Format : UTF-8
Codec ID : S_TEXT/UTF8
Codec ID/Info : UTF-8 Plain Text
Duration : 1 h 47 min
Bit rate : 56 b/s
Count of elements : 926
Stream size : 44.2 KiB (0%)
Title : Full by ivadm
Language : Ukrainian
Default : No
Forced : No

Text #2
ID : 5
Format : UTF-8
Codec ID : S_TEXT/UTF8
Codec ID/Info : UTF-8 Plain Text
Duration : 1 h 46 min
Bit rate : 34 b/s
Count of elements : 940
Stream size : 27.1 KiB (0%)
Title : Full
Language : English
Default : No
Forced : No

Text #3
ID : 6
Format : UTF-8
Codec ID : S_TEXT/UTF8
Codec ID/Info : UTF-8 Plain Text
Duration : 1 h 47 min
Bit rate : 40 b/s
Count of elements : 1098
Stream size : 32.2 KiB (0%)
Title : SDH
Language : English
Default : No
Forced : No

Menu
00:00:00.000 : en:Chapter 01
00:05:09.309 : en:Chapter 02
00:11:39.156 : en:Chapter 03
00:17:06.692 : en:Chapter 04
00:24:08.655 : en:Chapter 05
00:28:59.446 : en:Chapter 06
00:37:24.242 : en:Chapter 07
00:41:59.517 : en:Chapter 08
00:49:11.448 : en:Chapter 09
00:56:06.404 : en:Chapter 10
01:03:22.298 : en:Chapter 11
01:10:25.012 : en:Chapter 12
01:17:21.928 : en:Chapter 13
01:22:20.477 : en:Chapter 14
01:30:26.295 : en:Chapter 15
01:38:48.589 : en:Chapter 16
01:43:58.357 : en:Chapter 17
01:48:14.279 : en:Chapter 18
Скріншоти



Джерело:
Особиста оцінка: 10 - без зайвих вагань рекомендую всім!


Авторський реліз (завантажувати можна без реєстрації)
 Трекер:    Зареєстрований   

Завантажити / скачати фільм українською



відео для новачків



 Зареєстрований:   2018-06-10 14:18
 Розмір:   4.57 GB 
 Оцінка фільму:   8.4/10 (Голосів: 26)
   
Інші релізи
Ragnaroker 
Новенький


З нами з: 18.12.15
Востаннє: 02.12.18
Повідомлень: 10

2018-06-12 00:37  
ГеоморфологИНЯ?! ФізикИНЯ?! БіологИНЯ?! Але парамедик. Чому вже не парамедИОЛОГИНЯ?!

А загалом фільм нормальний. Навіть місцями цікавий.

AlexCros 
Новенький


З нами з: 04.12.16
Востаннє: 16.12.18
Повідомлень: 11

2018-06-17 16:32  
Ragnaroker
Так цей треш так різав вуха що капець, ці гендерські штучки вже і до дубляжу дійшли Cry (2)

Spaceberry 
Новенький


З нами з: 16.11.16
Востаннє: 15.12.18
Повідомлень: 5

2018-07-02 18:21  
Оцiнки горе-критикiв i глядачiв якi намагаються бути критиками наче змовились. Дивився кiно i весь час запитував себе, коли ж воно повинно стати поганим? Це справжнiй витвiр мистецтва, дивiться i отримуйте задоволення.
Telepaiko 
Частий відвідувач


З нами з: 29.07.16
Востаннє: 16.12.18
Повідомлень: 26

2018-09-24 19:47  
Кіно дійсно гарне. Але фемінітиви ріжуть вухо Sad (1)
huliolopez 
Новенький


З нами з: 07.07.18
Востаннє: 01.12.18
Повідомлень: 1

2018-10-16 20:43  
Робіть як я - дивіться англійською
Umbrella.Corps 
Частий відвідувач


З нами з: 09.04.17
Востаннє: 12.12.18
Повідомлень: 37

2018-11-11 18:30  
Це не українська озвучка, це хрінь якась.
Ваш часовий пояс: GMT + 2 Години

Нова тема   Відповісти