Червоний горобець / Red Sparrow (2018) 1080p H.265 Ukr/Eng | Sub Eng

Нові коментарі

Нова тема   Відповісти
Автор Повідомлення
ukr_anonymous 
Попереджень: 1
Попереджень: 1 


З нами з: 16.04.18
Востаннє: 14.12.18
Повідомлень: 231

2018-06-10 13:45  
Червоний горобець / Red Sparrow (2018) 1080p H.265 Ukr/Eng | Sub Eng

Червоний горобець / Red Sparrow (2018) 1080p H.265 Ukr/Eng | Sub Eng

Жанр: детектив, трилер
Країна: США



Кінокомпанія: 20th Century Fox, Chernin Entertainment
Режисер: Френсіс Лоуренс
Актори: Дженніфер Лоуренс, Джоел Едґертон, Шарлотта Ремплінґ, Маттіас Шонартс, Джеремі Айронс, Мері-Луїз Паркер, Кьяран Гайндс, Джоелі Річардсон, Дуґлас Годж, Текла Рютен та інші

Сюжет:
Домініку Єгорову (Дженніфер Лоуренс) проти її волі вербують до російської секретної служби у якості «горобця» - професійної звабниці. Домініка вчиться використовувати своє тіло в якості зброї, але прагне зберегти почуття власної гідності під час проходження цього принизливого вишколу. Перетворившись на знаряддя несправедливої системи, вона стає одним з найцінніших агентів секретної програми. Її першою ціллю є Нат Неш (Джоел Едґертон), офіцер ЦРУ, відповідальний за проникнення американських «кротів» до російської розвідки. Між двома молодими людьми зав’язуються складні стосунки, які загрожують безпеці обох країн.


Тривалість: 02:20:13
Якість:
Відео:
кодек: H.265 (HEVC)
розмір кадру: 1920 х 800
бітрейт: 3 691 кб/с
бітова глибина: 10 біт
Увага! Перед завантаженням переконайтесь, що ваш пристрій відтворення (та/або ПЗ) підтримує H.265 (HEVC)

Аудіо # 1:
мова: українська
переклад: професійний дубльований
кодек: 5.1
бітрейт: 448 кб/с

Аудіо # 2:
мова: англійська
переклад: оригінал
кодек: 5.1
бітрейт: 384 кб/с

Субтитри # 1-3:
мова: англійська (Full, SHD, SHD-Colored)
тип: програмні (м'які)
формат: *.srt
Info
General
Unique ID : 137315659129250187971665745273435561096 (0x674E08B29667EAD2CF4C7462EF319C88)
Complete name : E:\video\Red Sparrow (2018) 1080p H.265 [UKR_ENG].
Format :
Format version : Version 4 / Version 2
File size : 4.43 GiB
Duration : 2 h 20 min
Overall bit rate : 4 526 kb/s
Movie name : Red Sparrow
Encoded date : UTC 2018-06-08 20:29:56
Writing application : v22.0.0 ('At The End Of The World') 64-bit
Writing library : libebml v1.3.5 + v1.4.8
Cover : Yes
Attachments : cover.jpg

Video
ID : 1
Format : HEVC
Format/Info : High Efficiency Video Coding
Format profile : Main [email protected]@Main
Codec ID : V_MPEGH/ISO/HEVC
Duration : 2 h 20 min
Bit rate : 3 691 kb/s
Width : 1 920 pixels
Height : 800 pixels
Display aspect ratio : 2.40:1
Frame rate mode : Constant
Frame rate : 23.976 (24000/1001) FPS
Color space : YUV
Chroma subsampling : 4:2:0
Bit depth : 10 bits
Bits/(Pixel*Frame) : 0.100
Stream size : 3.62 GiB (82%)
Writing library : x265 2.7+337-54ff74d2b635:[Windows][GCC 7.3.0][64 bit] 10bit
Encoding settings : cpuid=1111039 / frame-threads=3 / numa-pools=8 / wpp / no-pmode / no-pme / no-psnr / no-ssim / log-level=2 / input-csp=1 / input-res=1920x800 / interlace=0 / total-frames=201716 / level-idc=0 / high-tier=1 / uhd-bd=0 / ref=4 / no-allow-non-conformance / no-repeat-headers / annexb / no-aud / no-hrd / info / hash=0 / no-temporal-layers / open-gop / min-keyint=23 / keyint=250 / gop-lookahead=0 / bframes=4 / b-adapt=2 / b-pyramid / bframe-bias=0 / rc-lookahead=25 / lookahead-slices=4 / scenecut=40 / radl=0 / no-intra-refresh / ctu=64 / min-cu-size=8 / rect / no-amp / max-tu-size=32 / tu-inter-depth=1 / tu-intra-depth=1 / limit-tu=0 / rdoq-level=2 / dynamic-rd=0.00 / no-ssim-rd / signhide / no-tskip / nr-intra=0 / nr-inter=0 / no-constrained-intra / strong-intra-smoothing / max-merge=3 / limit-refs=3 / limit-modes / me=3 / subme=3 / merange=57 / temporal-mvp / weightp / no-weightb / no-analyze-src-pics / deblock=0:0 / sao / no-sao-non-deblock / rd=4 / no-early-skip / rskip / no-fast-intra / no-tskip-fast / no-cu-lossless / no-b-intra / no-splitrd-skip / rdpenalty=0 / psy-rd=2.00 / psy-rdoq=1.00 / no-rd-refine / no-lossless / cbqpoffs=0 / crqpoffs=0 / rc=crf / crf=18.0 / qcomp=0.60 / qpstep=4 / stats-write=0 / stats-read=0 / ipratio=1.40 / pbratio=1.30 / aq-mode=3 / aq-strength=1.00 / cutree / zone-count=0 / no-strict-cbr / qg-size=32 / no-rc-grain / qpmax=69 / qpmin=0 / no-const-vbv / sar=0 / overscan=0 / videoformat=5 / range=0 / colorprim=2 / transfer=2 / colormatrix=2 / chromaloc=0 / display-window=0 / max-cll=0,0 / min-luma=0 / max-luma=1023 / log2-max-poc-lsb=8 / vui-timing-info / vui-hrd-info / slices=1 / no-opt-qp-pps / no-opt-ref-list-length-pps / no-multi-pass-opt-rps / scenecut-bias=0.05 / no-opt-cu-delta-qp / aq-motion / no-hdr / no-hdr-opt / no-dhdr10-opt / no-idr-recovery-sei / analysis-reuse-level=5 / scale-factor=0 / refine-intra=0 / refine-inter=0 / refine-mv=0 / no-limit-sao / ctu-info=0 / no-lowpass-dct / refine-mv-type=0 / copy-pic=1 / max-ausize-factor=1.0 / no-dynamic-refine / no-single-sei
Default : Yes
Forced : No

Audio #1
ID : 2
Format : AC-3
Format/Info : Audio Coding 3
Codec ID : A_AC3
Duration : 2 h 20 min
Bit rate mode : Constant
Bit rate : 448 kb/s
Channel(s) : 6 channels
Channel positions : Front: L C R, Side: L R, LFE
Sampling rate : 48.0 kHz
Frame rate : 31.250 FPS (1536 SPF)
Bit depth : 16 bits
Compression mode : Lossy
Stream size : 449 MiB (10%)
Title : 5.1 @ 448 kbps
Language : Ukrainian
Service kind : Complete Main
Default : Yes
Forced : Yes

Audio #2
ID : 3
Format : AC-3
Format/Info : Audio Coding 3
Codec ID : A_AC3
Duration : 2 h 20 min
Bit rate mode : Constant
Bit rate : 384 kb/s
Channel(s) : 6 channels
Channel positions : Front: L C R, Side: L R, LFE
Sampling rate : 48.0 kHz
Frame rate : 31.250 FPS (1536 SPF)
Bit depth : 16 bits
Compression mode : Lossy
Stream size : 385 MiB (8%)
Title : 5.1 @ 384 kbps
Language : English
Service kind : Complete Main
Default : No
Forced : No

Text #1
ID : 4
Format : UTF-8
Codec ID : S_TEXT/UTF8
Codec ID/Info : UTF-8 Plain Text
Duration : 2 h 11 min
Bit rate : 47 b/s
Count of elements : 1599
Stream size : 46.1 KiB (0%)
Title : Full
Language : English
Default : No
Forced : No

Text #2
ID : 5
Format : UTF-8
Codec ID : S_TEXT/UTF8
Codec ID/Info : UTF-8 Plain Text
Duration : 2 h 12 min
Bit rate : 51 b/s
Count of elements : 1777
Stream size : 50.4 KiB (0%)
Title : SDH
Language : English
Default : No
Forced : No

Text #3
ID : 6
Format : UTF-8
Codec ID : S_TEXT/UTF8
Codec ID/Info : UTF-8 Plain Text
Duration : 2 h 12 min
Bit rate : 63 b/s
Count of elements : 1777
Stream size : 61.9 KiB (0%)
Title : SDH Colored
Language : English
Default : No
Forced : No

Menu
00:00:00.000 : en:Chapter 01
00:08:00.104 : en:Chapter 02
00:11:31.982 : en:Chapter 03
00:16:57.182 : en:Chapter 04
00:21:09.643 : en:Chapter 05
00:27:21.264 : en:Chapter 06
00:33:03.356 : en:Chapter 07
00:38:09.245 : en:Chapter 08
00:42:29.129 : en:Chapter 09
00:46:41.799 : en:Chapter 10
00:54:14.334 : en:Chapter 11
00:58:45.480 : en:Chapter 12
01:04:55.266 : en:Chapter 13
01:10:26.138 : en:Chapter 14
01:16:28.250 : en:Chapter 15
01:26:44.699 : en:Chapter 16
01:32:06.938 : en:Chapter 17
01:36:22.443 : en:Chapter 18
01:41:53.148 : en:Chapter 19
01:49:48.415 : en:Chapter 20
01:53:45.610 : en:Chapter 21
01:58:52.083 : en:Chapter 22
02:07:20.132 : en:Chapter 23
02:13:40.095 : en:Chapter 24
Скріншоти



Джерело:
Особиста оцінка: 0 - не дивився


 Трекер:    Зареєстрований   

Завантажити / скачати фільм українською



відео для новачків



 Зареєстрований:   2018-06-10 13:45
 Розмір:   4.43 GB 
 Оцінка фільму:   7.8/10 (Голосів: 16)
   
Інші релізи
maranello 
Новенький


З нами з: 01.12.16
Востаннє: 18.09.18
Повідомлень: 1

2018-07-08 20:09  
Раджу до перегляду.
Corros 
Новенький


З нами з: 19.05.10
Востаннє: 15.12.18
Повідомлень: 17

2018-11-04 06:05  
Нова Нікіта?
Ваш часовий пояс: GMT + 2 Години

Нова тема   Відповісти