Формула 1. Сезон 2018. Етап 7. Гран-Прі Канади. Кваліфікація (09.06.2018) IPTV 1080p

Нові коментарі

Нова тема   Відповісти
Останній раз роздавалося KO4EBHUK (2020-10-17)
Автор Повідомлення
sergiyko.5 
VIP


З нами з: 25.02.16
Востаннє: 25.10.20
Повідомлень: 3615

2018-06-09 22:34  
Формула 1. Сезон 2018. Етап 7. Гран-Прі Канади. Кваліфікація (09.06.2018) IPTV 1080p


Формула 1. Сезон 2018. Етап 7. Гран-Прі Канади. Кваліфікація (09.06.2018) IPTV 1080p

Жанр: Перегони Формули 1
Країна: Канада
Телеканал: Перший автомобільний
Коментатор: Максим Подзігун

Опис:
Кваліфікація сьомого етапу Гран-Прі Канади 2018 року.


Тривалість: 01:12:37
Якість: IPTV

Відео: кодек: розмір кадру: 1920 х 1080 бітрейт: 4517 кб/с
Аудіо: мова: українська кодек: 2.0 бітрейт: 192 кб/с
Про файл:
General
Unique ID : 227420772991964845152337110504038291511 (0xAB17A5CD93788872BD8DB19C38C15837)
Complete name : D:\Torrents\SPORT\Formula 1\F1.2018.Qualifying\F1.2018.07.Canada.Qualifying.1080p.IPTV.Ukr.
Format :
Format version : Version 4 / Version 2
File size : 2.39 GiB
Duration : 1 h 12 min
Overall bit rate : 4 711 kb/s
Movie name : F1 2018 07 Canada Qualifying 1080p IPTV by sergiyko
Encoded date : UTC 2018-06-09 20:26:09
Writing application : v23.0.0 ('The Bride Said No') 64-bit
Writing library : libebml v1.3.6 + v1.4.9

Video
ID : 1
Format : AVC
Format/Info : Advanced Video Codec
Format profile : [email protected]
Format settings : CABAC / 4 Ref Frames
Format settings, CABAC : Yes
Format settings, ReFrames : 4 frames
Codec ID : V_MPEG4/ISO/AVC
Duration : 1 h 12 min
Bit rate : 4 517 kb/s
Width : 1 920 pixels
Height : 1 080 pixels
Display aspect ratio : 16:9
Frame rate mode : Constant
Frame rate : 25.000 FPS
Standard : Component
Color space : YUV
Chroma subsampling : 4:2:0
Bit depth : 8 bits
Scan type : Progressive
Bits/(Pixel*Frame) : 0.087
Stream size : 2.29 GiB (96%)
Language : English
Default : Yes
Forced : No
Color range : Limited
Color primaries : BT.709
Transfer characteristics : BT.709
Matrix coefficients : BT.709

Audio
ID : 2
Format : MPEG Audio
Format version : Version 1
Format profile : Layer 2
Codec ID : A_MPEG/L2
Codec ID/Hint : MP2
Duration : 1 h 12 min
Bit rate mode : Constant
Bit rate : 192 kb/s
Channel(s) : 2 channels
Sampling rate : 48.0 kHz
Frame rate : 41.667 FPS (1152 SPF)
Compression mode : Lossy
Stream size : 99.7 MiB (4%)
Title : 1 Авто | Максим Подзігун
Language : Ukrainian
Default : Yes
Forced : No
Скріншоти:


Автор зведення: sergiyko


 Трекер:    Зареєстрований   

Завантажити / скачати торрент



відео для новачків



 Зареєстрований:   2018-06-10 15:11
 Розмір:   2.39 GB 
 Оцінка:   10/10 (Голосів: 13)
   
VicCob 
Свій


З нами з: 16.06.10
Востаннє: 25.10.20
Повідомлень: 58

2018-06-09 22:52  
Дякую!
Arail 
Новенький


З нами з: 04.10.11
Востаннє: 18.10.20
Повідомлень: 13

2018-06-10 08:42  
На початку чомусь звук біжить поперед відео, десь секунд на 15-20. потім виправляється.
sergiyko.5 
VIP


З нами з: 25.02.16
Востаннє: 25.10.20
Повідомлень: 3615

2018-06-10 15:12  
Були недоліки, файл виправлено.
Dossik 
Новенький


З нами з: 17.05.17
Востаннє: 05.09.20
Повідомлень: 15

2018-10-03 07:42  
Нема роздачі(((
Ваш часовий пояс: GMT + 2 Години

Нова тема   Відповісти