Феєрверки / Uchiage Hanabi, Shita kara Miru ka? Yoko kara Miru ka? [2017] 1080p Ukr/Jap

Нові коментарі

Нова тема   Відповісти
Автор Повідомлення
Arch Enemy 
VIP


З нами з: 30.08.12
Востаннє: 19.08.19
Повідомлень: 1689

2018-06-09 22:30  
Феєрверки / Uchiage Hanabi, Shita kara Miru ka? Yoko kara Miru ka?





Країна: Японія
Прем'єра: 18.08.2017
Жанр: пригоди, романтика, фантастика
Аніместудія: Shaft

Тривалість: 01год. 30хв. 04сек.

Автор оригінала: Іваі Шунджі
Режисер: Шінбо Акіюкі
Сейю: Хіросе Сузу, Суда Масакі, Міяно Мамору, Асанума Шінтаро, Тойонаґа Тошіюкі, Каджі Юукі, Ханазава Кана, Мацу Такако та інші.

Сюжет:
Літо. Норімічі Шімада з друзями хочуть дізнатися, які феєрверки - пласкі чи круглі - якщо дивитися на них збоку. Хлопці вирішують знайти відповідь на фестивалі на острові Мошімо. Однак однокласниця Норімічі Назуна Ойкава хоче втекти з дому і просить хлопця приєднатися до неї. Коли втеча не вдається, дивна кулька Назуни дає їм ще одну можливість бути разом.

якість:
контейнер:
кодек:
частота кадрів: 23.976 кадрів/сек.
розмір кадру: 1920х1080 пікс.
бітрейт: ~10 800 кбіт/сек.
бітність: 10 біт.

Аудіо # 1:
мова: українська, двоголосе закадрове озвучення.
кодек:
кількість каналів: 5.1
бітрейт: ~1 360 кбіт/сек.
частота: 48000 Гц

Аудіо # 2:
мова: японська, оригінал
кодек:
кількість каналів: 2.0
бітрейт: ~1 000 кбіт/сек.
частота: 48000 Гц

Субтитри:
мова: українська, написи та пояснення (увімкнені за замовчуванням)
формат:
тип: м'які, внутрішні

Джерело перекладу та озвучення: AniUA та G&M

текст читали: Gwean та Maslinka
переклад: MadGuy
робота зі звуком: Gwean


MI
General
Unique ID : 231538793429100554059028261912106865423 (0xAE30BFE2DA2855E2969A59A27619930F)
Complete name : E:\Anime\Uchiage Hanabi ( 1080 ).
Format :
Format version : Version 4 / Version 2
File size : 8.31 GiB
Duration : 1 h 30 min
Overall bit rate mode : Variable
Overall bit rate : 13.2 Mb/s
Encoded date : UTC 2018-06-03 18:41:36
Writing application : v7.0.0 ('Where We Going') 32bit built on Jun 9 2014 15:08:34
Writing library : libebml v1.3.0 + v1.4.1
Cover : Yes
Attachments : arial.ttf / arialbd.ttf / BKANT.TTF / segoepr.ttf / cover.jpg

Video
ID : 1
Format : AVC
Format/Info : Advanced Video Codec
Format profile : High [email protected]
Format settings : CABAC / 4 Ref Frames
Format settings, CABAC : Yes
Format settings, ReFrames : 4 frames
Codec ID : V_MPEG4/ISO/AVC
Duration : 1 h 30 min
Bit rate : 10.8 Mb/s
Width : 1 920 pixels
Height : 1 080 pixels
Display aspect ratio : 16:9
Frame rate mode : Constant
Frame rate : 23.976 (24000/1001) FPS
Color space : YUV
Chroma subsampling : 4:2:0
Bit depth : 10 bits
Scan type : Progressive
Bits/(Pixel*Frame) : 0.218
Stream size : 6.82 GiB (82%)
Title : by Jensen
Writing library : core 152 r2851M ba24899 (DJATOM's build)
Encoding settings : cabac=1 / ref=4 / deblock=1:1:-1 / analyse=0x3:0x113 / me=umh / subme=9 / psy=1 / psy_rd=1.00:0.00 / mixed_ref=1 / me_range=32 / chroma_me=1 / trellis=2 / 8x8dct=1 / cqm=0 / deadzone=21,11 / fast_pskip=1 / chroma_qp_offset=-2 / threads=34 / lookahead_threads=5 / sliced_threads=0 / nr=0 / decimate=1 / interlaced=0 / bluray_compat=0 / constrained_intra=0 / bframes=9 / b_pyramid=2 / b_adapt=2 / b_bias=0 / direct=1 / weightb=1 / open_gop=0 / weightp=2 / keyint=240 / keyint_min=23 / scenecut=40 / intra_refresh=0 / rc=crf / mbtree=0 / crf=15.0000 / qcomp=0.72 / qpmin=0 / qpmax=81 / qpstep=4 / ip_ratio=1.40 / pb_ratio=1.30 / aq=1:0.85
Language : Japanese
Default : Yes
Forced : Yes
Color range : Limited
Color primaries : BT.709
Transfer characteristics : BT.709
Matrix coefficients : BT.709

Audio #1
ID : 2
Format :
Format/Info : Free Lossless Audio Codec
Codec ID : A_FLAC
Duration : 1 h 30 min
Bit rate mode : Variable
Bit rate : 1 358 kb/s
Channel(s) : 6 channels
Channel positions : Front: L C R, Side: L R, LFE
Sampling rate : 48.0 kHz
Frame rate : 11.719 FPS (4096 SPF)
Bit depth : 16 bits
Stream size : 875 MiB (10%)
Title : двоголосий закадровий від Gwean & Maslinka
Writing library : libFLAC 20170101 (UTC 2017-01-01)
Language : Ukrainian
Default : Yes
Forced : Yes

Audio #2
ID : 3
Format :
Format/Info : Free Lossless Audio Codec
Codec ID : A_FLAC
Duration : 1 h 30 min
Bit rate mode : Variable
Bit rate : 1 004 kb/s
Channel(s) : 2 channels
Channel positions : Front: L R
Sampling rate : 48.0 kHz
Frame rate : 11.719 FPS (4096 SPF)
Bit depth : 24 bits
Stream size : 647 MiB (8%)
Title : оригінальна доріжка
Writing library : libFLAC 1.3.2 (UTC 2017-01-01)
Language : Japanese
Default : No
Forced : No

Text
ID : 4
Format :
Codec ID : S_TEXT/
Codec ID/Info : Advanced Sub Station Alpha
Duration : 1 h 6 min
Bit rate : 5 b/s
Count of elements : 24
Compression mode : Lossless
Stream size : 2.78 KiB (0%)
Title : написи від MadGuy [aniua.com]
Language : Ukrainian
Default : Yes
Forced : Yes

Menu
00:00:00.000 : en:Part A 01
00:01:41.852 : en:OP
00:02:32.152 : en:Part A 02
00:08:01.314 : en:Part A 03
00:11:11.588 : en:Part A 04
00:17:12.531 : en:Part A 05
00:19:47.436 : en:Part A 06
00:25:20.436 : en:Part A 07
00:30:23.238 : en:Part A 08
00:33:41.394 : en:Part B 01
00:36:05.080 : en:Part B 02
00:39:23.778 : en:Part B 03
00:43:45.540 : en:Part B 04
00:47:31.348 : en:Part B 05
00:53:24.326 : en:Part C 01
00:57:20.646 : en:Part C 02
01:00:32.295 : en:Part C 03
01:07:20.536 : en:Part D 01
01:13:29.280 : en:Part D 02
01:18:22.114 : en:Part D 03
01:25:10.689 : en:ED
Якщо вам подобаються наші релізи, і є бажання чимось допомогти проекту, то будемо раді, якщо ви підтримаєте нас фінансово. І, якщо хочете подякувати за якесь конкретне аніме, або форсувати процес озвучення, прохання вказати у коментарі до переказу.
Підтримати/подякувати «AniUA»
Підтримати/подякувати «Gwean & Maslinka»
Також у нас можна замовити переклад або озвучення



Авторський реліз (завантажувати можна без реєстрації)
 Трекер:    Зареєстрований   

Завантажити / скачати аніме українською



відео для новачків



 Зареєстрований:   2018-06-09 22:30
 Розмір:   8.31 GB 
 Оцінка аніме:   9.7/10 (Голосів: 7)
   
leicheman 
Відео Гуртом - підтримка та поширення
Відео Гуртом - підтримка та поширення


З нами з: 03.07.14
Востаннє: 24.08.19
Повідомлень: 3905

2018-06-11 17:52  
і як воно? бо боюся я дивитися нові анімешки (розбалував себе старими/класичними)
Arch Enemy 
VIP


З нами з: 30.08.12
Востаннє: 19.08.19
Повідомлень: 1689

2018-06-11 18:05  
leicheman написано:
і як воно? бо боюся я дивитися нові анімешки (розбалував себе старими/класичними)

Ну... таке, я прогортав - глянути можна. Все в стилі Шафта.
Дівчина не раз тікає з хати, а хлопець коли бачить як її мати силоміць тягне малу додому - панікує та поводиться як не вдаха. Також відчуваються нотки Моноґатарі.

Ваш часовий пояс: GMT + 2 Години

Нова тема   Відповісти