Знамення / Knowing (2009) AVC Ukr/Eng | Sub Eng

Нові коментарі

Нова тема   Відповісти
Автор Повідомлення
staf777 
Відео Гуртом - підтримка та поширення
Відео Гуртом - підтримка та поширення


З нами з: 16.11.16
Востаннє: 19.04.19
Повідомлень: 2265

2018-06-09 19:41  
Знамення / Knowing (2009) AVC Ukr/Eng | Sub Eng

Знамення / Knowing (2009) AVC Ukr/Eng | Sub Eng


Жанр: драма, детектив, фантастика, трилер
Країна: США, Велика Британія, Австралія



Кінокомпанія: Summit Entertainment, Escape Artists, Mystery Clock Cinema, Goldcrest Pictures, Kaplan/Perrone Entertainment, Wintergreen Productions
Режисер: Алекс Прояс / Alex Proyas
Актори: Ніколас Кейдж / Nicolas Cage, Чендлер Кентербарі / Chandler Canterbury, Роуз Берн / Rose Byrne, Лара Робінсон / Lara Robinson, Ді.Джі. Малоні / D.G. Maloney, Надя Товнсенд / Nadia Townsend, Алан Хопгуд / Alan Hopgood, Адрінн Пікерінг / Adrienne Pickering, Джошуа Лонг / Joshua Long, Деніель Картер / Danielle Carter, Алеті МакҐрат / Alethea McGrath, Девід Ленні / David Lennie, Тамара Доннеллан / Tamara Donnellan, Травіс Bайт / Travis Waite, Бен Мендельсон / Ben Mendelsohn

Сюжет:
Під час розкопок на території школи, де вчиться син викладача Джона Кесслера, знаходять таємничу капсулу часу. Вражаючі передбачення, що знаходяться в капсулі, дійсно збулися, і це заставляє вчителя повірити в те, що до кінця тижня світ загине.

Незабаром він знаходить дівчину Діану, дочку жінки, яка в 1962 році і зарила капсулу. Спочатку вона скептично відноситься до справи, але з часом згадує незвичайні події з свого дитинства, і поступово всі деталі починають складатися в загальну картину.


Тривалість: 02:01:29
Якість: AVC
Відео:
кодек:
розмір кадру: 1024x436
бітрейт: 1830 кб/с

Аудіо # 1:
мова: українська
переклад: багатоголосий закадровий | Воля Кіно HD
кодек: 2.0
бітрейт: 192 кб/с
Фільм перекладено і озвучено на студії Tretyakoff production на замовлення Aurora Distribution
аналогічне озвучення було по 1+1 та Новому каналу


Аудіо # 2:
мова: англійська
переклад: оригінал
кодек: 5.1
бітрейт: 448 кб/с

Субтитри 1-2:
мова: англійська
тип: програмні (м'які)
формат: *.srt
Info
General
Unique ID : 255116856471815254145234838830955879405 (0xBFEDB82555FEFC10B48AC81143FBDBED)
Complete name : H:\Майбутні релізи\Knowing (2009) AVC [Ukr][Eng][Sub Eng][Hurtom].
Format :
Format version : Version 4 / Version 2
File size : 2.10 GiB
Duration : 2 h 1 min
Overall bit rate : 2 472 kb/s
Movie name : Knowing (2009) AVC [Ukr][Eng][Sub Eng][Hurtom]
Encoded date : UTC 2018-06-09 17:22:28
Writing application : v9.8.0 ('Kuglblids') 64bit
Writing library : libebml v1.3.4 + v1.4.5
Cover : Yes
Attachments : cover.jpg

Video
ID : 1
Format : AVC
Format/Info : Advanced Video Codec
Format profile : [email protected]
Format settings : CABAC / 8 Ref Frames
Format settings, CABAC : Yes
Format settings, ReFrames : 8 frames
Codec ID : V_MPEG4/ISO/AVC
Duration : 2 h 1 min
Bit rate : 1 830 kb/s
Width : 1 024 pixels
Height : 436 pixels
Display aspect ratio : 2.35:1
Frame rate mode : Constant
Frame rate : 23.976 (24000/1001) FPS
Color space : YUV
Chroma subsampling : 4:2:0
Bit depth : 8 bits
Scan type : Progressive
Bits/(Pixel*Frame) : 0.171
Stream size : 1.55 GiB (74%)
Title : Rip by Enigma-Vladislav71
Writing library : core 125 r2208 d9d2288
Encoding settings : cabac=1 / ref=8 / deblock=1:-2:-2 / analyse=0x3:0x133 / me=umh / subme=11 / psy=1 / psy_rd=1.00:0.00 / mixed_ref=1 / me_range=48 / chroma_me=1 / trellis=2 / 8x8dct=1 / cqm=0 / deadzone=21,11 / fast_pskip=0 / chroma_qp_offset=-2 / threads=3 / lookahead_threads=1 / sliced_threads=0 / nr=0 / decimate=0 / interlaced=0 / bluray_compat=0 / constrained_intra=0 / bframes=8 / b_pyramid=2 / b_adapt=2 / b_bias=0 / direct=3 / weightb=1 / open_gop=0 / weightp=2 / keyint=240 / keyint_min=23 / scenecut=40 / intra_refresh=0 / rc=2pass / mbtree=0 / bitrate=1830 / ratetol=1.0 / qcomp=0.60 / qpmin=10 / qpmax=51 / qpstep=4 / cplxblur=20.0 / qblur=0.5 / ip_ratio=1.40 / pb_ratio=1.30 / aq=1:1.00
Language : English
Default : No
Forced : No

Audio #1
ID : 2
Format : AC-3
Format/Info : Audio Coding 3
Codec ID : A_AC3
Duration : 2 h 1 min
Bit rate mode : Constant
Bit rate : 192 kb/s
Channel(s) : 2 channels
Channel positions : Front: L R
Sampling rate : 48.0 kHz
Frame rate : 31.250 FPS (1536 SPF)
Bit depth : 16 bits
Compression mode : Lossy
Stream size : 167 MiB (8%)
Title : [UA-MVO- Воля Кіно HD]
Language : Ukrainian
Service kind : Complete Main
Default : Yes
Forced : Yes

Audio #2
ID : 3
Format : AC-3
Format/Info : Audio Coding 3
Codec ID : A_AC3
Duration : 2 h 1 min
Bit rate mode : Constant
Bit rate : 448 kb/s
Channel(s) : 6 channels
Channel positions : Front: L C R, Side: L R, LFE
Sampling rate : 48.0 kHz
Frame rate : 31.250 FPS (1536 SPF)
Bit depth : 16 bits
Compression mode : Lossy
Stream size : 389 MiB (18%)
Language : English
Service kind : Complete Main
Default : No
Forced : No

Text
ID : 4
Format : UTF-8
Codec ID : S_TEXT/UTF8
Codec ID/Info : UTF-8 Plain Text
Duration : 1 h 51 min
Bit rate : 43 b/s
Count of elements : 970
Stream size : 36.0 KiB (0%)
Language : English
Default : No
Forced : No

Menu
00:00:00.000 : en:Chapter 01
00:08:35.097 : en:Chapter 02
00:15:20.210 : en:Chapter 03
00:20:28.143 : en:Chapter 04
00:29:06.828 : en:Chapter 05
00:36:52.752 : en:Chapter 06
00:43:17.011 : en:Chapter 07
00:49:04.524 : en:Chapter 08
00:56:09.741 : en:Chapter 09
01:02:31.038 : en:Chapter 10
01:08:11.545 : en:Chapter 11
01:16:17.364 : en:Chapter 12
01:22:58.098 : en:Chapter 13
01:30:14.700 : en:Chapter 14
01:39:33.509 : en:Chapter 15
01:50:31.166 : en:Chapter 16
Скріншоти




Джерело: &
Особиста оцінка: 8 - мені сподобалося


 Трекер:    Зареєстрований   

Завантажити / скачати фільм українською



відео для новачків



 Зареєстрований:   2018-06-10 07:33
 Розмір:   2.1 GB 
 Оцінка фільму:   8.5/10 (Голосів: 20)
   
Інші релізи
   Знамення / Knowing (2009) 1080p Ukr/Eng | Sub Eng staf777  3 / 0   9.91 GB   2016-12-27 11:45 
   Знамення / Knowing (2009) Ukr/Eng | Sub Eng karvai0  3 / 0   2.02 GB   2012-07-31 18:55 
   Знамення / Knowing (2009) 720p Zeus62  7 / 0   4.27 GB   2011-11-29 01:46 
bot 
робот


З нами з: 30.09.07
Востаннє: 26.05.05
Повідомлень: 21216

2018-06-10 07:33  
Тему перенесено з Анонси релізів до форуму Фільми


staf777

Ваш часовий пояс: GMT + 2 Години

Нова тема   Відповісти