Потяг-утікач / Runaway Train (1985) Remux 1080р Ukr/Eng | Sub Eng

Нові коментарі

Нова тема   Відповісти
Автор Повідомлення
staf777 
Попереджень: 1
Попереджень: 1 


З нами з: 16.11.16
Востаннє: 15.12.18
Повідомлень: 1919

2018-06-09 18:32  
Потяг-утікач / Runaway Train (1985) Remux 1080р Ukr/Eng | Sub Eng

Потяг-утікач / Runaway Train (1985) Remux 1080р Ukr/Eng | Sub Eng


Жанр: бойовик, трилер, драма, пригодницький
Країна: США



Кінокомпанія: Golan-Globus Productions, Northbrook Films
Режисер: Андрій Кончаловський / Andrey Konchalovskiy
Актори: Джон Войт / Jon Voight, Ерік Робертс / Eric Roberts, Ребекка Де Морней / Rebecca De Mornay, Джон П. Райан / John P. Ryan, Т. К. Картер / T.K. Carter, Кайл Т. Хефнер / Kyle T. Heffner та інші.

Сюжет:
У сніжну бурю, посеред Аляски, на божевільній швидкості без зупинок мчить потяг у невідомому напрямі.
Машиніст мертвий, і нікому зупинити сталеву громадину. В потягу знаходяться двоє карних злочинців, що втекли з колонії, і молода жінка, і кожний новий кілометр наближає їх чи то до смерті, чи то до порятунку...

Нагороди: Золотий глобус (1986) за кращу чоловічу роль (драма) (Джон Войт)
Тривалість: 01:50:45
Якість: Remux 1080р
Відео:
кодек:
розмір кадру: 1920x1080
бітрейт: 35.0 Mб/с

Аудіо # 1:
мова: українська
переклад: двоголосий закадровий
кодек: 2.0
бітрейт: 192 кб/с

Аудіо # 2:
мова: англійська
переклад: оригінал
кодек: 2.0
бітрейт: 1470 кб/с

Джерело озвучення:


Субтитри:
мова: англійська
тип: програмні (м'які)
формат: *.srt
Info
General
Unique ID : 245701586052935088127199242935892972066 (0xB8D8677968454995B1B8DCB83A841222)
Complete name : G:\ Runaway Train (1985) Remux 1080р[Ukr][Eng][Sub Eng][Hurtom].
Format :
Format version : Version 4 / Version 2
File size : 28.3 GiB
Duration : 1 h 50 min
Overall bit rate mode : Variable
Overall bit rate : 36.6 Mb/s
Movie name : Runaway Train (1985) Remux 1080р[Ukr][Eng][Sub Eng][Hurtom]
Encoded date : UTC 2018-06-09 18:24:04
Writing application : v9.8.0 ('Kuglblids') 64bit
Writing library : libebml v1.3.4 + v1.4.5
Attachments : poster.jpg

Video
ID : 1
Format : AVC
Format/Info : Advanced Video Codec
Format profile : [email protected]
Format settings : CABAC / 3 Ref Frames
Format settings, CABAC : Yes
Format settings, ReFrames : 3 frames
Codec ID : V_MPEG4/ISO/AVC
Duration : 1 h 50 min
Bit rate mode : Variable
Bit rate : 35.0 Mb/s
Maximum bit rate : 38.0 Mb/s
Width : 1 920 pixels
Height : 1 080 pixels
Display aspect ratio : 16:9
Frame rate mode : Constant
Frame rate : 23.976 (24000/1001) FPS
Color space : YUV
Chroma subsampling : 4:2:0
Bit depth : 8 bits
Scan type : Progressive
Bits/(Pixel*Frame) : 0.704
Stream size : 27.0 GiB (95%)
Writing library : core 128 r2216 198a7ea
Encoding settings : cabac=1 / ref=4 / deblock=0:-1:-1 / analyse=0x3:0x133 / me=umh / subme=10 / psy=1 / psy_rd=1.00:0.15 / mixed_ref=1 / me_range=24 / chroma_me=1 / trellis=2 / 8x8dct=1 / cqm=0 / deadzone=21,11 / fast_pskip=1 / chroma_qp_offset=-3 / threads=12 / lookahead_threads=2 / sliced_threads=0 / slices=4 / nr=0 / decimate=1 / interlaced=0 / bluray_compat=1 / constrained_intra=0 / bframes=3 / b_pyramid=1 / b_adapt=2 / b_bias=0 / direct=3 / weightb=1 / open_gop=1 / weightp=1 / keyint=24 / keyint_min=1 / scenecut=40 / intra_refresh=0 / rc_lookahead=24 / rc=2pass / mbtree=1 / bitrate=35000 / ratetol=1.0 / qcomp=0.60 / qpmin=0 / qpmax=69 / qpstep=4 / cplxblur=20.0 / qblur=0.5 / vbv_maxrate=38000 / vbv_bufsize=30000 / nal_hrd=vbr / ip_ratio=1.40 / aq=1:1.00
Default : Yes
Forced : No
Color range : Limited
Color primaries : BT.709
Transfer characteristics : BT.709
Matrix coefficients : BT.709

Audio #1
ID : 2
Format : AC-3
Format/Info : Audio Coding 3
Codec ID : A_AC3
Duration : 1 h 50 min
Bit rate mode : Constant
Bit rate : 192 kb/s
Channel(s) : 2 channels
Channel positions : Front: L R
Sampling rate : 48.0 kHz
Frame rate : 31.250 FPS (1536 SPF)
Bit depth : 16 bits
Compression mode : Lossy
Stream size : 152 MiB (1%)
Title : [UA-DVO]
Language : Ukrainian
Service kind : Complete Main
Default : Yes
Forced : Yes

Audio #2
ID : 3
Format :
Format/Info : Free Lossless Audio Codec
Codec ID : A_FLAC
Duration : 1 h 50 min
Bit rate mode : Variable
Bit rate : 1 470 kb/s
Channel(s) : 2 channels
Channel positions : Front: L R
Sampling rate : 48.0 kHz
Frame rate : 11.719 FPS (4096 SPF)
Bit depth : 24 bits
Stream size : 1.14 GiB (4%)
Writing library : libFLAC 1.2.1 (UTC 2007-09-17)
Language : English
Default : No
Forced : No

Text
ID : 4
Format : UTF-8
Codec ID : S_TEXT/UTF8
Codec ID/Info : UTF-8 Plain Text
Duration : 1 h 43 min
Bit rate : 48 b/s
Count of elements : 999
Stream size : 36.8 KiB (0%)
Language : English
Default : No
Forced : No

Menu
00:00:00.000 : en:
00:06:08.326 : en:
00:11:06.415 : en:
00:20:28.310 : en:
00:27:38.197 : en:
00:34:05.001 : en:
00:46:21.820 : en:
00:54:39.859 : en:
01:06:11.008 : en:
01:18:14.731 : en:
01:31:32.778 : en:
01:40:08.168 : en:
Скріншоти



Ріп відео, оригінальні звук та субтитри, українська доріжка - Rutor; першоджерело української доріжки - wrongfunction, український постер - Architect (обоє - Гуртом)


Джерело: &
Особиста оцінка: 8 - мені сподобалося
Потяг-утікач / Runaway Train (1985) Remux 1080р Ukr/Eng | Sub Eng Потяг-утікач / Runaway Train (1985) Remux 1080р Ukr/Eng | Sub Eng


Золотий реліз (завантажене не впливає на рейтинг)
 Трекер:    Зареєстрований   

Завантажити / скачати фільм українською



відео для новачків



 Зареєстрований:   2018-06-09 21:04
 Розмір:   28.28 GB 
 Оцінка фільму:   10/10 (Голосів: 3)
   
Інші релізи
   Потяг-утікач / Runaway Train (1985) AVC Ukr/Eng | Sub Eng staf777  6 / 0   2.42 GB   2018-06-09 17:44 
   Потяг-утікач / Runaway Train (1985) 1080p Ukr/Eng | Sub Eng igor911  4 / 0   10.81 GB   2013-08-13 21:51 
   Потяг-утікач / Runaway Train (1985) Ukr/Eng wrongfunction  1 / 0   1.62 GB   2010-05-16 14:23 
Oleksa9 
VIP


З нами з: 17.05.12
Востаннє: 15.12.18
Повідомлень: 323

2018-06-17 12:50  
Відмінне кіно! Варте перегляду!
Ваш часовий пояс: GMT + 2 Години

Нова тема   Відповісти