Потяг-утікач / Runaway Train (1985) AVC Ukr/Eng | Sub Eng

Нові коментарі

Нова тема   Відповісти
Автор Повідомлення
staf777 
Попереджень: 1
Попереджень: 1 


З нами з: 16.11.16
Востаннє: 24.06.18
Повідомлень: 1154

2018-06-09 18:44  
Потяг-утікач / Runaway Train (1985) AVC Ukr/Eng | Sub Eng

Потяг-утікач / Runaway Train (1985) AVC Ukr/Eng | Sub Eng


Жанр: бойовик, трилер, драма, пригодницький
Країна: США



Кінокомпанія: Golan-Globus Productions, Northbrook Films
Режисер: Андрій Кончаловський / Andrey Konchalovskiy
Актори: Джон Войт / Jon Voight, Ерік Робертс / Eric Roberts, Ребекка Де Морней / Rebecca De Mornay, Джон П. Райан / John P. Ryan, Т. К. Картер / T.K. Carter, Кайл Т. Хефнер / Kyle T. Heffner та інші.

Сюжет:
У сніжну бурю, посеред Аляски, на божевільній швидкості без зупинок мчить потяг у невідомому напрямі.
Машиніст мертвий, і нікому зупинити сталеву громадину. В потягу знаходяться двоє карних злочинців, що втекли з колонії, і молода жінка, і кожний новий кілометр наближає їх чи то до смерті, чи то до порятунку...

Нагороди: Золотий глобус (1986) за кращу чоловічу роль (драма) (Джон Войт)
Тривалість: 01:50:45
Якість: AVC
Відео:
кодек:
розмір кадру: 1024x554
бітрейт: 2742 кб/с

Аудіо # 1:
мова: українська
переклад: двоголосий закадровий
кодек: 2.0
бітрейт: 192 кб/с

Аудіо # 2:
мова: англійська
переклад: оригінал
кодек: 2.0
бітрейт: 192 кб/с

Джерело озвучення:


Субтитри:
мова: англійська
тип: програмні (м'які)
формат: *.srt
Info
General
Unique ID : 249821051677279518946849595093239678093 (0xBBF1C8CF82ADA7818CF9ABD62DBF448D)
Complete name : H:\Майбутні релізи\Runaway Train (1985) AVC [Ukr][Eng][Sub Eng][Hurtom].
Format :
Format version : Version 4 / Version 2
File size : 2.42 GiB
Duration : 1 h 50 min
Overall bit rate : 3 127 kb/s
Movie name : Runaway Train (1985) AVC [Ukr][Eng][Sub Eng][Hurtom]
Encoded date : UTC 2018-06-09 15:30:36
Writing application : v9.8.0 ('Kuglblids') 64bit
Writing library : libebml v1.3.4 + v1.4.5
Cover : Yes
Attachments : cover.jpg

Video
ID : 1
Format : AVC
Format/Info : Advanced Video Codec
Format profile : [email protected]
Format settings : CABAC / 9 Ref Frames
Format settings, CABAC : Yes
Format settings, ReFrames : 9 frames
Codec ID : V_MPEG4/ISO/AVC
Duration : 1 h 50 min
Bit rate : 2 742 kb/s
Width : 1 024 pixels
Height : 554 pixels
Display aspect ratio : 1.85:1
Frame rate mode : Constant
Frame rate : 23.976 (24000/1001) FPS
Color space : YUV
Chroma subsampling : 4:2:0
Bit depth : 8 bits
Scan type : Progressive
Bits/(Pixel*Frame) : 0.202
Stream size : 2.12 GiB (88%)
Title : Rip by 0ptimus
Writing library : core 133 r2334 a3ac64b
Encoding settings : cabac=1 / ref=9 / deblock=1:-3:-3 / analyse=0x3:0x113 / me=umh / subme=11 / psy=1 / psy_rd=1.00:0.20 / mixed_ref=1 / me_range=48 / chroma_me=1 / trellis=2 / 8x8dct=1 / cqm=0 / deadzone=21,11 / fast_pskip=0 / chroma_qp_offset=-3 / threads=4 / lookahead_threads=1 / sliced_threads=0 / nr=0 / decimate=0 / interlaced=0 / bluray_compat=0 / constrained_intra=0 / bframes=12 / b_pyramid=2 / b_adapt=2 / b_bias=0 / direct=3 / weightb=1 / open_gop=0 / weightp=2 / keyint=240 / keyint_min=23 / scenecut=40 / intra_refresh=0 / rc_lookahead=40 / rc=2pass / mbtree=0 / bitrate=2742 / ratetol=1.0 / qcomp=0.60 / qpmin=0 / qpmax=69 / qpstep=4 / cplxblur=20.0 / qblur=0.5 / vbv_maxrate=50000 / vbv_bufsize=50000 / nal_hrd=none / ip_ratio=1.40 / pb_ratio=1.30 / aq=1:1.00
Language : English
Default : Yes
Forced : Yes

Audio #1
ID : 2
Format : AC-3
Format/Info : Audio Coding 3
Codec ID : A_AC3
Duration : 1 h 50 min
Bit rate mode : Constant
Bit rate : 192 kb/s
Channel(s) : 2 channels
Channel positions : Front: L R
Sampling rate : 48.0 kHz
Frame rate : 31.250 FPS (1536 SPF)
Bit depth : 16 bits
Compression mode : Lossy
Stream size : 152 MiB (6%)
Title : [UA-DVO]
Language : Ukrainian
Service kind : Complete Main
Default : Yes
Forced : Yes

Audio #2
ID : 3
Format : AC-3
Format/Info : Audio Coding 3
Codec ID : A_AC3
Duration : 1 h 50 min
Bit rate mode : Constant
Bit rate : 192 kb/s
Channel(s) : 2 channels
Channel positions : Front: L R
Sampling rate : 48.0 kHz
Frame rate : 31.250 FPS (1536 SPF)
Bit depth : 16 bits
Compression mode : Lossy
Stream size : 152 MiB (6%)
Title : 2.0 @ 192 kbps
Language : English
Service kind : Complete Main
Default : No
Forced : No

Text
ID : 4
Format : UTF-8
Codec ID : S_TEXT/UTF8
Codec ID/Info : UTF-8 Plain Text
Duration : 1 h 43 min
Bit rate : 48 b/s
Count of elements : 999
Stream size : 36.8 KiB (0%)
Language : English
Default : No
Forced : No

Menu
00:00:00.000 : en:Chapter 1
00:06:08.326 : en:Chapter 2
00:11:06.415 : en:Chapter 3
00:20:28.310 : en:Chapter 4
00:27:38.197 : en:Chapter 5
00:34:05.001 : en:Chapter 6
00:46:21.820 : en:Chapter 7
00:54:39.859 : en:Chapter 8
01:06:11.008 : en:Chapter 9
01:18:14.731 : en:Chapter 10
01:31:32.778 : en:Chapter 11
01:40:08.168 : en:Chapter 12
Скріншоти



Ріп відео, оригінальні звук та субтитри, українська доріжка - 0ptimus; першоджерело української доріжки - wrongfunction, український постер - Architect (обоє - Гуртом)
Джерело: &
Особиста оцінка: 0 - не дивився


Срібний реліз (на рейтинг впливає 50% завантаженого)
 Трекер:    Зареєстрований   

Завантажити / скачати фільм українською



відео для новачків



 Зареєстрований:   2018-06-09 18:44
 Розмір:   2.42 GB 
 Оцінка фільму:   9/10 (Голосів: 11)
   
Інші релізи
   Потяг-утікач / Runaway Train (1985) Remux 1080р Ukr/Eng | Sub Eng staf777  1 / 0   28.28 GB   2018-06-09 22:04 
   Потяг-утікач / Runaway Train (1985) 1080p Ukr/Eng | Sub Eng igor911  3 / 0   10.81 GB   2013-08-13 22:51 
   Потяг-утікач / Runaway Train (1985) Ukr/Eng wrongfunction  5 / 0   1.62 GB   2010-05-16 15:23 
bot 
робот


З нами з: 30.09.07
Востаннє: 26.05.05
Повідомлень: 19163

2018-06-09 18:44  
Тему перенесено з Фільми в HD до форуму Фільми


staf777

Ваш часовий пояс: GMT + 2 Години

Нова тема   Відповісти