Тарас Компаніченко - Посттравматична рапсодія [Original Soundtrack] (2018) [] | Folk

Нові коментарі

Нова тема   Відповісти
Автор Повідомлення
gosha.samovar 
VIP


З нами з: 08.09.10
Востаннє: 16.07.19
Повідомлень: 438

2018-06-09 18:07  
Тарас Компаніченко - Посттравматична рапсодія [Original Soundtrack] (2018) [] | Folk



Стиль: Folk
Країна, місто: Україна, Київ
Видавець: Автор
Пісні:
    01. В чужих музеях про свою війну (Мечі й булави). Слова та музика Тараса Компаніченка
    02. Пісня про битву на Калці 1224 року. Слова - Анонім, співавтор Галицько-Волинського літопису. Музична реконструкція Тараса Компаніченка
    03. Дума про Савур-Могилу (Про Іловайську Трагедію). Слова та музика Тараса Компаніченка
    04. Ах, Українонько. Анонім, історична пісня доби Руїни., II пол.XVII ст. рукописний збірник Лаврентія Ґінтовта та Домініка Рудницького
    05. Гей, браття козаки (Хмільницька пісня чи пісня Хмельницького). Слова Степана Руданського, музика Миколи Устияновича
    06. Moriendum (Пісня про смерть). Анонім. Почаївський "Богогласник" оо. Василіан 1790-1791 років
    07. Завжди Україна буде. Слова Дмитра Корчинського, музика Тараса Компаніченка
    08. Гей, наш батько молодий (Пісня про Нестора Махна). Слова невідомого автора (Клим Поліщук?), музика народна. Українська революція 1917-1921 роки
    09. Schöne Minka (Мила Минко). Слова Христофера Авґуста Тідґе, музика Семена Климовського
    10. Ніченька темная (На голос: Ніч яка Господи). Слова Володимира Косовського, музика Миколи Лисенка
    11. Три тисячі років триває війна. Слова Дмитра Корчинського, музика Алєксандра Варламова
EAC log
Exact Audio Copy V1.1 from 23. June 2015

Отчёт EAC об извлечении, выполненном 2. июня 2018, 14:22

Тарас Компаніченко / Посттравматична Рапсодія

Дисковод: PHILIPS SPD2519T Adapter: 1 ID: 1

Режим чтения : Достоверность
Использование точного потока : Да
Отключение кэша аудио : Да
Использование указателей C2 : Нет

Коррекция смещения при чтении : 6
Способность читать области Lead-in и Lead-out : Нет
Заполнение пропущенных сэмплов тишиной : Да
Удаление блоков с тишиной в начале и конце : Нет
При вычислениях CRC использовались нулевые сэмплы : Да
Интерфейс : Встроенный Win32-интерфейс для Win NT/2000

Выходной формат : Пользовательский кодировщик
Выбранный битрейт : 1024 kBit/s
Качество : Высокий
Добавление ID3-тега : Нет
Утилита сжатия : F:\soft_2\EAC\Exact Audio Copy\\.exe
Дополнительные параметры : -V -8 -T "Date=%year%" -T "Genre=%genre%" %source%

TOC извлечённого CD

Трек | Старт | Длительность | Начальный сектор | Конечный сектор
---------------------------------------------------------------------
1 | 0:00.00 | 2:46.18 | 0 | 12467
2 | 2:46.18 | 4:16.59 | 12468 | 31726
3 | 7:03.02 | 6:37.37 | 31727 | 61538
4 | 13:40.39 | 3:50.12 | 61539 | 78800
5 | 17:30.51 | 4:23.37 | 78801 | 98562
6 | 21:54.13 | 2:16.65 | 98563 | 108827
7 | 24:11.03 | 2:44.37 | 108828 | 121164
8 | 26:55.40 | 2:34.00 | 121165 | 132714
9 | 29:29.40 | 2:26.50 | 132715 | 143714
10 | 31:56.15 | 3:29.52 | 143715 | 159441
11 | 35:25.67 | 5:53.14 | 159442 | 185930

Характеристики диапазона извлечения и сообщения об ошибках

Выбранный диапазон

Имя файла D:\Тарас Компаніченко - Посттравматична Рапсодія.wav

Пиковый уровень 100.0 %
Скорость извлечения 7.1 X
Качество диапазона 100.0 %
CRC теста BBFB844F
CRC копии BBFB844F
Копирование... OK

Ошибок не произошло

AccurateRip: сводка

Трек 1 : извлечено точно (доверие 1) [AE378D85] (AR v2)
Трек 2 : извлечено точно (доверие 1) [4E8C2CAD] (AR v2)
Трек 3 : извлечено точно (доверие 1) [81CBA63B] (AR v2)
Трек 4 : извлечено точно (доверие 1) [3945ECFC] (AR v2)
Трек 5 : извлечено точно (доверие 1) [5230045C] (AR v2)
Трек 6 : извлечено точно (доверие 1) [AB5A3575] (AR v2)
Трек 7 : извлечено точно (доверие 1) [FC4369B5] (AR v2)
Трек 8 : извлечено точно (доверие 1) [0DF4B5C6] (AR v2)
Трек 9 : извлечено точно (доверие 1) [55C4910E] (AR v2)
Трек 10 : извлечено точно (доверие 1) [470548E9] (AR v2)
Трек 11 : извлечено точно (доверие 1) [CB7B94E5] (AR v2)

Все треки извлечены точно

Конец отчёта

---- CUETools DB Plugin V2.1.6

[CTDB TOCID: GAiPJqyPv26HuiQE8QC1dk7yScQ-] found
Submit result: GAiPJqyPv26HuiQE8QC1dk7yScQ- has been confirmed
Track | CTDB Status
1 | (1/1) Accurately ripped
2 | (1/1) Accurately ripped
3 | (1/1) Accurately ripped
4 | (1/1) Accurately ripped
5 | (1/1) Accurately ripped
6 | (1/1) Accurately ripped
7 | (1/1) Accurately ripped
8 | (1/1) Accurately ripped
9 | (1/1) Accurately ripped
10 | (1/1) Accurately ripped
11 | (1/1) Accurately ripped

==== Контрольная сумма отчёта 34E1032FEF0EF02D7429A8688A2C5B31AB84297B1B6DA21C12444F78D8818FE7 ====
Спектр


Тривалість: 00:41:19
Мова: українська (окрім 06 - латинська, 09 - німецька)
Аудіо-кодек:
Бітрейт: 673 кб/с
Джерело: Власний ріп
Додаткова інформація
«Тарас Компаніченко взяв участь у створенні «Посттравматичної рапсодії» ще до вистави. Він, фактично, виступає співавтором цієї вистави, адже на його музиці у ній дуже багато всього трималось. Пізніше він записував саундтрек для фільму і навіть сам з'являється в ньому», – зазначив автор сценарію Дмитро Корчинський.

Сам композитор розповів про свою музику та про джерела натхнення для її написання.

«У саму виставу, а потім і в фільм, увійшли ті твори, які були створені в різні історичні періоди. Головний герой, доброволець Сашко зустрічається з героями та антигероями, які були на нашій землі та воювали з нами або проти нас у різні часи», – розповідає Тарас Компаніченко.

Таким чином, різні історичні періоди зберегли багато «артефактів», які використовувались і у виставі, і у фільмі.

«Це твори, які відображають певні історичні періоди. Наприклад, там є пісня про битву на річці Калка у 1223 році. Для цього ми озвучили та реконструювали музику так, ніби вона справді звучала у 13 столітті», – пояснює композитор.

Натомість озвучення твору Дмитра Корчинського «Завжди Україна буде» він створив спеціально для цієї вистави.

«Так само я озвучив і свій вірш «Мечі, булави і смертоносні стріли», хоча думав, що цього вже ніколи не станеться. Це був вірш, про який я ніколи не думав, що він стане піснею. Але так сталося, що ці рядки знайшли своє місце у виставі, з них розпочинався пролог», – каже музикант. Читайте більше тут: https://zik.ua/news/2018/03/01/muzyka_u_filmi_posttravmatychna_rapsodiya_bude_vidlunnyam_istorii__1276687
Якщо Ви справді бажаєте підтримати українське - після прослуховування, якщо музика вам сподобалась, придбайте ліцензійний диск. Підтримаймо вітчизняних виконавців!


Срібний реліз (на рейтинг впливає 50% завантаженого)
 Трекер:    Зареєстрований   

Завантажити / скачати українську музику



відео для новачків



 Зареєстрований:   2018-06-09 18:07
 Розмір:   210 MB 
 Оцінка музики:   10/10 (Голосів: 8)
   
ssTAss 
Модератор музики


З нами з: 05.07.08
Востаннє: 18.07.19
Повідомлень: 15159

2018-06-09 20:05  
gosha.samovar написано:
Мова: українська

тут теж?
gosha.samovar написано:
06. Moriendum

gosha.samovar написано:
09. Schöne Minka

gosha.samovar 
VIP


З нами з: 08.09.10
Востаннє: 16.07.19
Повідомлень: 438

2018-06-09 21:39  
ssTAss
Виправив Wide grin

Ваш часовий пояс: GMT + 2 Години

Нова тема   Відповісти