Влада вогню / Reign of Fire (2002) AVC Ukr/Eng | Sub Eng

Нові коментарі

Нова тема   Відповісти
Автор Повідомлення
staf777 
Попереджень: 1
Попереджень: 1 


З нами з: 16.11.16
Востаннє: 23.07.18
Повідомлень: 1274

2018-06-08 20:22  
Влада вогню / Reign of Fire (2002) AVC Ukr/Eng | Sub Eng

Влада вогню / Reign of Fire (2002) AVC Ukr/Eng | Sub Eng


Жанр: фантастика, бойовик, фентезі, трилер
Країна: США, Велика Британія, Ірландія



Кінокомпанія: Spyglass Entertainment, Touchstone Pictures, Tripod Entertainment
Режисер: Роб Бауман
Актори: Крістіан Бейл, Меттью МакКонахі, Ізабелла Скорупко, Джерард Батлер, Девід Кенеді, Олександр Сіддінг, Нед Деннехі, Рорі Кінен

Сюжет:
Лондон, наші дні... Мати 12-го Квінна випадково збудила від багатовікового сну гігантське вогнедишне чудовисько... Двадцять років по тому. Велика частина планети знаходиться під владою монстра і його нащадків. Квінн відчуває провину за появу чудовиська і готовий врятувати людство. До нього приєднується американський стрілець Ван Зан, який знає, як знищити цього монстра…


Тривалість: 01:41:58
Якість: AVC
Відео:
кодек:
розмір кадру: 1024x438
бітрейт: 2700 кб/с

Аудіо # 1:
мова: українська
переклад: багатоголосий закадровий
кодек: 5.1
бітрейт: 448 кб/с

Аудіо # 2:
мова: англійська
переклад: оригінал
кодек: 5.1
бітрейт: 384 кб/с

Джерело озвучення:


Субтитри:
мова: англійська
тип: програмні (м'які)
формат: *.srt
Info
General
Unique ID : 243557634173518499650327675301001003868 (0xB73B7E7C4821424488A358DC419D835C)
Complete name : H:\Майбутні релізи\ Reign of Fire (2002) AVC [Ukr][Eng][Sub Eng][Hurtom].
Format :
Format version : Version 4 / Version 2
File size : 2.52 GiB
Duration : 1 h 41 min
Overall bit rate : 3 533 kb/s
Movie name : Reign of Fire (2002) AVC [Ukr][Eng][Sub Eng][Hurtom]
Encoded date : UTC 2018-06-08 17:26:54
Writing application : v9.8.0 ('Kuglblids') 64bit
Writing library : libebml v1.3.4 + v1.4.5
Cover : Yes
Attachments : cover.jpg

Video
ID : 1
Format : AVC
Format/Info : Advanced Video Codec
Format profile : [email protected]
Format settings : CABAC / 8 Ref Frames
Format settings, CABAC : Yes
Format settings, ReFrames : 8 frames
Codec ID : V_MPEG4/ISO/AVC
Duration : 1 h 41 min
Bit rate : 2 700 kb/s
Width : 1 024 pixels
Height : 438 pixels
Display aspect ratio : 2.35:1
Frame rate mode : Constant
Frame rate : 23.976 (24000/1001) FPS
Color space : YUV
Chroma subsampling : 4:2:0
Bit depth : 8 bits
Scan type : Progressive
Bits/(Pixel*Frame) : 0.251
Stream size : 1.92 GiB (76%)
Writing library : core 125 r2200 999b753
Encoding settings : cabac=1 / ref=8 / deblock=1:-3:-3 / analyse=0x3:0x113 / me=umh / subme=11 / psy=1 / psy_rd=1.00:0.20 / mixed_ref=1 / me_range=48 / chroma_me=1 / trellis=2 / 8x8dct=1 / cqm=0 / deadzone=21,11 / fast_pskip=0 / chroma_qp_offset=-3 / threads=3 / lookahead_threads=1 / sliced_threads=0 / nr=0 / decimate=0 / interlaced=0 / bluray_compat=0 / constrained_intra=0 / bframes=8 / b_pyramid=2 / b_adapt=2 / b_bias=0 / direct=3 / weightb=1 / open_gop=1 / weightp=2 / keyint=240 / keyint_min=23 / scenecut=40 / intra_refresh=0 / rc=2pass / mbtree=0 / bitrate=2700 / ratetol=1.0 / qcomp=0.60 / qpmin=0 / qpmax=69 / qpstep=4 / cplxblur=20.0 / qblur=0.5 / ip_ratio=1.40 / pb_ratio=1.30 / aq=1:1.00
Default : Yes
Forced : No
Color range : Limited
Color primaries : Generic film

Audio #1
ID : 2
Format : AC-3
Format/Info : Audio Coding 3
Codec ID : A_AC3
Duration : 1 h 41 min
Bit rate mode : Constant
Bit rate : 448 kb/s
Channel(s) : 6 channels
Channel positions : Front: L C R, Side: L R, LFE
Sampling rate : 48.0 kHz
Frame rate : 31.250 FPS (1536 SPF)
Bit depth : 16 bits
Compression mode : Lossy
Stream size : 327 MiB (13%)
Title : MVO |2+2|
Language : Ukrainian
Service kind : Complete Main
Default : Yes
Forced : Yes

Audio #2
ID : 3
Format : AC-3
Format/Info : Audio Coding 3
Codec ID : A_AC3
Duration : 1 h 41 min
Bit rate mode : Constant
Bit rate : 384 kb/s
Channel(s) : 6 channels
Channel positions : Front: L C R, Side: L R, LFE
Sampling rate : 48.0 kHz
Frame rate : 31.250 FPS (1536 SPF)
Bit depth : 16 bits
Compression mode : Lossy
Stream size : 280 MiB (11%)
Language : English
Service kind : Complete Main
Default : No
Forced : No

Text
ID : 4
Format : UTF-8
Codec ID : S_TEXT/UTF8
Codec ID/Info : UTF-8 Plain Text
Duration : 1 h 34 min
Bit rate : 37 b/s
Count of elements : 983
Stream size : 25.8 KiB (0%)
Language : English
Default : No
Forced : No
Скріншоти




Подяка за наданий запис karvai0, за постер - Ham_R
Джерело: &
Особиста оцінка: 0 - не дивився


Срібний реліз (на рейтинг впливає 50% завантаженого)
 Трекер:    Зареєстрований   

Завантажити / скачати фільм українською



відео для новачків



 Зареєстрований:   2018-06-08 20:42
 Розмір:   2.52 GB 
 Оцінка фільму:   8.6/10 (Голосів: 18)
   
Інші релізи
   Влада вогню / Reign of Fire (2002) Remux 1080p Ukr/Eng | Sub Eng IronBee  3 / 0   16.82 GB   2018-06-24 17:10 
   Влада вогню / Reign of Fire (2002) 1080p Ukr/Eng | Sub Eng staf777  12 / 0   7.19 GB   2018-02-20 18:58 
   Влада вогню / Reign of Fire (2002) 720p Ukr/Eng | Sub Eng Hurtomivets'  3 / 0   5.13 GB   2012-01-29 02:06 
   Влада вогню / Reign of Fire (2002) Ukr/Eng | Sub Eng Romario_O  3 / 0   2.18 GB   2012-01-29 01:08 
vanya3891 
Новенький


З нами з: 14.06.17
Востаннє: 18.07.18
Повідомлень: 6

2018-06-09 20:37  
Кращий фільм про драконів!
sinpavla 
Свій


З нами з: 15.06.12
Востаннє: 23.07.18
Повідомлень: 59

2018-06-14 07:21  
красно дякую
Voblak 
Новенький


З нами з: 25.03.17
Востаннє: 17.07.18
Повідомлень: 1

2018-06-19 18:49  
Реально найбомбезнiший фiльм з драконом. Ой давно дивився 99 раз, дякую за 100й! )
Stepkoman1 
Новенький


З нами з: 29.08.11
Востаннє: 18.07.18
Повідомлень: 2

2018-06-21 20:55  
Огого! Крутезно, дякую!
Вже і забув коли дивився той фільм, навіть не знав, що МакКоннахі там знімався!

Ваш часовий пояс: GMT + 2 Години

Нова тема   Відповісти