Вторгнення / The Invasion (2007) AVC Ukr/Eng | Sub Ukr/Eng

Нові коментарі

Нова тема   Відповісти
Автор Повідомлення
staf777 
Відео Гуртом - підтримка та поширення
Відео Гуртом - підтримка та поширення


З нами з: 16.11.16
Востаннє: 24.04.19
Повідомлень: 2284

2018-06-08 19:38  
Вторгнення / The Invasion (2007) AVC Ukr/Eng | Sub Ukr/Eng

Вторгнення / The Invasion (2007) AVC Ukr/Eng | Sub Ukr/Eng


Жанр: драма, фантастика, трилер
Країна: США, Австралія



Кінокомпанія: Warner Bros. Pictures
Режисер: Олівер Хіршбігель
Актори: Ніколь Кідман, Деніел Крейг, Джеремі Нортем, Джексон Бонд, Джеффрі Райт, Вероніка Картрайт, Йозеф Зоммер, Селія Вестон

Сюжет:
Історія про таємничу епідемію, яку насилають на жителів маленького містечка інопланетяни, що упровадилися на планету. Героїні Ніколь Кідман, психіатра з Вашингтона, вдається знайти причину незрозумілих змін в поведінці людей цього міста.


Тривалість: 01:39:22
Якість: AVC
Відео:
кодек:
розмір кадру: 1024x576
бітрейт: 3500 кб/с

Аудіо # 1:
мова: українська
переклад: багатоголосий закадровий
кодек: 5.1
бітрейт: 448 кб/с

Аудіо # 2:
мова: англійська
переклад: оригінал
кодек: 5.1
бітрейт: 448 кб/с

Джерело озвучення:


Субтитри:
мова: українська
тип: програмні (м'які)
формат: *.srt

Субтитри:
мова: англійська
тип: програмні (м'які)
формат: *.srt
Info
General
Unique ID : 214094331151499159294557112789664113990 (0xA111117DFF6BD457A98B1D6354F9A546)
Complete name : H:\Майбутні релізи\The Invasion (2007) AVC [Ukr,Eng sub.Ukr,Eng][Hurtom].
Format :
Format version : Version 4 / Version 2
File size : 3.05 GiB
Duration : 1 h 39 min
Overall bit rate : 4 395 kb/s
Movie name : The Invasion (2007) AVC [Ukr,Eng sub.Ukr,Eng][Hurtom]
Encoded date : UTC 2018-06-08 16:17:11
Writing application : v9.8.0 ('Kuglblids') 64bit
Writing library : libebml v1.3.4 + v1.4.5
Cover : Yes
Attachments : cover.jpg

Video
ID : 1
Format : AVC
Format/Info : Advanced Video Codec
Format profile : [email protected]
Format settings : CABAC / 8 Ref Frames
Format settings, CABAC : Yes
Format settings, ReFrames : 8 frames
Codec ID : V_MPEG4/ISO/AVC
Duration : 1 h 39 min
Bit rate : 3 500 kb/s
Width : 1 024 pixels
Height : 576 pixels
Display aspect ratio : 16:9
Frame rate mode : Constant
Frame rate : 23.976 (24000/1001) FPS
Color space : YUV
Chroma subsampling : 4:2:0
Bit depth : 8 bits
Scan type : Progressive
Bits/(Pixel*Frame) : 0.247
Stream size : 2.43 GiB (80%)
Writing library : core 125 r2208 d9d2288
Encoding settings : cabac=1 / ref=8 / deblock=1:-3:-3 / analyse=0x3:0x133 / me=umh / subme=11 / psy=1 / psy_rd=1.00:0.20 / mixed_ref=1 / me_range=48 / chroma_me=1 / trellis=2 / 8x8dct=1 / cqm=0 / deadzone=21,11 / fast_pskip=0 / chroma_qp_offset=-3 / threads=3 / lookahead_threads=1 / sliced_threads=0 / nr=0 / decimate=0 / interlaced=0 / bluray_compat=0 / constrained_intra=0 / bframes=8 / b_pyramid=2 / b_adapt=2 / b_bias=0 / direct=3 / weightb=1 / open_gop=0 / weightp=2 / keyint=240 / keyint_min=23 / scenecut=40 / intra_refresh=0 / rc=2pass / mbtree=0 / bitrate=3500 / ratetol=1.0 / qcomp=0.60 / qpmin=0 / qpmax=69 / qpstep=4 / cplxblur=20.0 / qblur=0.5 / ip_ratio=1.40 / pb_ratio=1.30 / aq=1:1.00
Language : English
Default : Yes
Forced : No

Audio #1
ID : 2
Format : AC-3
Format/Info : Audio Coding 3
Codec ID : A_AC3
Duration : 1 h 39 min
Bit rate mode : Constant
Bit rate : 448 kb/s
Channel(s) : 6 channels
Channel positions : Front: L C R, Side: L R, LFE
Sampling rate : 48.0 kHz
Frame rate : 31.250 FPS (1536 SPF)
Bit depth : 16 bits
Compression mode : Lossy
Delay relative to video : 1 s 100 ms
Stream size : 318 MiB (10%)
Title : Багатоголосий закадровий - 5.1 448 кб/с
Language : Ukrainian
Service kind : Complete Main
Default : Yes
Forced : Yes

Audio #2
ID : 3
Format : AC-3
Format/Info : Audio Coding 3
Codec ID : A_AC3
Duration : 1 h 39 min
Bit rate mode : Constant
Bit rate : 448 kb/s
Channel(s) : 6 channels
Channel positions : Front: L C R, Side: L R, LFE
Sampling rate : 48.0 kHz
Frame rate : 31.250 FPS (1536 SPF)
Bit depth : 16 bits
Compression mode : Lossy
Stream size : 318 MiB (10%)
Language : English
Service kind : Complete Main
Default : No
Forced : No

Text #1
ID : 4
Format : UTF-8
Codec ID : S_TEXT/UTF8
Codec ID/Info : UTF-8 Plain Text
Duration : 1 h 38 min
Bit rate : 94 b/s
Count of elements : 1184
Stream size : 68.0 KiB (0%)
Language : Ukrainian
Default : No
Forced : No

Text #2
ID : 5
Format : UTF-8
Codec ID : S_TEXT/UTF8
Codec ID/Info : UTF-8 Plain Text
Duration : 1 h 31 min
Bit rate : 63 b/s
Count of elements : 1145
Stream size : 42.2 KiB (0%)
Language : English
Default : No
Forced : No
Скріншоти




Подяка за українську доріжку панам: urij546724, Merdiff. Постер - Тирік
Джерело: &
Особиста оцінка: 8 - мені сподобалося


 Трекер:    Зареєстрований   

Завантажити / скачати фільм українською



відео для новачків



 Зареєстрований:   2018-06-08 19:58
 Розмір:   3.05 GB 
 Оцінка фільму:   9.4/10 (Голосів: 10)
   
Інші релізи
   Вторгнення / The Invasion (2007) 1080p Ukr/Eng | Sub Eng boroznaya  0 / 0   8.26 GB   2018-03-21 18:04 
   Вторгнення / The Invasion (2007) 720p Ukr/Eng | Sub Ukr/Eng staf777  1 / 0   4.67 GB   2018-03-20 23:57 
   Вторгнення / The Invasion (2007) Ukr/Eng Arsenfpu  9 / 0   1.78 GB   2016-01-13 23:52 
bot 
робот


З нами з: 30.09.07
Востаннє: 26.05.05
Повідомлень: 21240

2018-06-08 19:57  
Тему перенесено з Анонси релізів до форуму Фільми


staf777

Ваш часовий пояс: GMT + 2 Години

Нова тема   Відповісти