Інспектор Ґаджет / Inspector Gadget (1999) 1080p Ukr/Eng | Sub Eng

Нові коментарі

Нова тема   Відповісти
Останній раз роздавалося coltojkee (2019-10-08)
Автор Повідомлення
Anonymous 







2018-06-08 15:46  
Інспектор Ґаджет / Inspector Gadget (1999) 1080p Ukr/Eng | Sub Eng



Жанр: екшн, пригодницький, комедія, сімейний, фантастика
Країна: США



Кінокомпанія: Walt Disney Pictures, Caravan Pictures, DiC Enterprises
Режисер: Девід Келоґ / David Kellogg
Актори: Метью Бродерік / Matthew Broderick, Руперт Еверет / Rupert Everett, Джойлі Фішер / Joely Fisher, Мішель Трахтенберґ / Michelle Trachtenberg, Енді Дік / Andy Dick, Шері Отері / Cheri Oteri та інші

Сюжет:
Непримітний охоронець Джон Браун все життя мріяв стати найвидатнішим поліцейським в історії. Сама доля подарувала йому цей шанс: після страшного вибуху Джон потрапляє в секретну лабораторію, де вчені перетворюють його на ідеального служителя закону. Він стає інспектором Ґаджетом, поліцейським XXI століття, в тілі якого - 14000 технічних пристосувань на всі випадки життя. Але на шляху непереможного супергероя несподівано стає суперлиходій, який створив ідеального злочинця - копію інспектора Ґаджета...


Тривалість: 01:18:23
Якість: 1080p [Amazon Video]
Відео:
кодек:
розмір кадру: 1920x1040
бітрейт: 11.5 Мб/с

Аудіо # 1:
мова: українська
переклад: двоголосий закадровий
кодек: 2.0
бітрейт: 192 кб/с

Аудіо # 2:
мова: англійська
переклад: оригінал
кодек: 5.1
бітрейт: 640 кб/с

Субтитри: (SDH)
мова: англійська
тип: програмні (м'які)
формат: *.srt
Info
General
Unique ID : 149588115092201902555539368005135339755 (0x70899F7E1C6C5FA8443722FBA3D990EB)
Format :
Format version : Version 4 / Version 2
File size : 6.75 GiB
Duration : 1 h 18 min
Overall bit rate mode : Variable
Overall bit rate : 12.3 Mb/s
Movie name : Інспектор Ґаджет / Inspector Gadget (1999) [Amazon] 1080p [Ukr.Eng Sub.Eng] [Hurtom]
Encoded date : UTC 2018-07-03 23:06:25
Writing application : v21.0.0 ('Tardigrades Will Inherit The Earth') 64-bit
Writing library : libebml v1.3.5 + v1.4.8
Cover : Yes
Attachments : Cover.jpg

Video
ID : 1
Format : AVC
Format/Info : Advanced Video Codec
Format profile : [email protected]
Format settings : CABAC / 4 Ref Frames
Format settings, CABAC : Yes
Format settings, RefFrames : 4 frames
Codec ID : V_MPEG4/ISO/AVC
Duration : 1 h 18 min
Bit rate mode : Variable
Bit rate : 11.5 Mb/s
Maximum bit rate : 15.0 Mb/s
Width : 1 920 pixels
Height : 1 040 pixels
Display aspect ratio : 1.85:1
Frame rate mode : Constant
Frame rate : 23.976 (24000/1001) FPS
Color space : YUV
Chroma subsampling : 4:2:0
Bit depth : 8 bits
Scan type : Progressive
Bits/(Pixel*Frame) : 0.240
Stream size : 6.29 GiB (93%)
Title : Inspector Gadget (1999) [Amazon] 1080p [Ukr.Eng Sub.Eng] [Hurtom]
Language : English
Default : Yes
Forced : No
Color range : Limited
Color primaries : BT.709
Transfer characteristics : BT.709
Matrix coefficients : BT.709

Audio #1
ID : 2
Format : AC-3
Format/Info : Audio Coding 3
Codec ID : A_AC3
Duration : 1 h 18 min
Bit rate mode : Constant
Bit rate : 192 kb/s
Channel(s) : 2 channels
Channel positions : Front: L R
Sampling rate : 48.0 kHz
Frame rate : 31.250 FPS (1536 SPF)
Bit depth : 16 bits
Compression mode : Lossy
Stream size : 108 MiB (2%)
Title : DVO | Novy Kanal | 2.0 | 192 kbps
Language : Ukrainian
Service kind : Complete Main
Default : Yes
Forced : No

Audio #2
ID : 3
Format : AC-3
Format/Info : Audio Coding 3
Codec ID : A_AC3
Duration : 1 h 18 min
Bit rate mode : Constant
Bit rate : 640 kb/s
Channel(s) : 6 channels
Channel positions : Front: L C R, Side: L R, LFE
Sampling rate : 48.0 kHz
Frame rate : 31.250 FPS (1536 SPF)
Bit depth : 16 bits
Compression mode : Lossy
Stream size : 359 MiB (5%)
Title : Original
Language : English
Service kind : Complete Main
Default : No
Forced : No

Text
ID : 4
Format : UTF-8
Codec ID : S_TEXT/UTF8
Codec ID/Info : UTF-8 Plain Text
Duration : 1 h 17 min
Bit rate : 70 b/s
Count of elements : 1259
Stream size : 40.2 KiB (0%)
Title : Original (SDH)
Language : English
Default : No
Forced : No
Скріншоти







Джерело: &
Особиста оцінка: 0 - не дивився
Подяки:
п.OlegCena, п.POMEO та п.nick_89 за запис із ТБ.
п.patriot2305 за опис та синхронізацію під DVD.
п.Ігор Вінський та п.igor911 за допомогу із скріншотами.

PG - рейтинг стрічки, встановлений Американською асоціацією кінокомпаній

MPAA, англ. Motion Picture Association of America - Американська асоціація кінокомпаній

Рейтинг PG — Parental guidance suggested
Дітям рекомендується дивитися фільм разом з батьками.

Рекомендується присутність батьків. Деякий матеріал, можливо, не підходить для дітей. Даний рейтинг показує, що оцінений фільм може містити деякі сцени, проглядання яких маленькими дітьми може не сподобатися їх батькам. Матеріал, який може бути присутнім у фільмі, повинен бути пояснений дітям перш, ніж їм дозволять відвідати фільм. Явні сексуальні сцени і сцени вживання наркотиків відсутні; нагота, якщо й присутня, то тільки дуже обмежено, жах і насильство не перевищують помірного рівня.


Не забуваємо дякувати!


Срібний реліз (на рейтинг впливає 50% завантаженого)
 Трекер:    Зареєстрований   

Завантажити / скачати фільм українською



відео для новачків



 Зареєстрований:   2018-07-04 14:04
 Розмір:   6.75 GB 
 Оцінка фільму:   8.8/10 (Голосів: 4)
   
Інші релізи
   Інспектор Ґаджет / Inspector Gadget (1999) Ukr/Eng patriot2305  2 / 0   1.12 GB   2014-07-11 12:47 
bot 
робот


З нами з: 30.09.07
Востаннє: 26.05.05
Повідомлень: 25548

2018-07-04 14:04  
Тему перенесено з Анонси релізів до форуму Фільми в HD


Pegass

bodia_ua 
Новенький


З нами з: 30.09.16
Востаннє: 07.09.20
Повідомлень: 3

2018-11-29 12:26  
Щось тут не так... Вже тиждень, як 97% висим усі.....
igor911 
Модератор відео


З нами з: 18.01.08
Востаннє: 20.09.20
Повідомлень: 14994

2018-11-29 13:11  
bodia_ua написано:
Щось тут не так

Цитата:
Останній раз роздавалося serafim0704 (2018-08-21)

Ваш часовий пояс: GMT + 2 Години

Нова тема   Відповісти