100 дівчат / 100 дівчат і одна в ліфті / 100 Girls (2000) 1080p Ukr/Eng | Sub Eng

Нові коментарі

Нова тема   Відповісти
Автор Повідомлення
Anonymous 







2018-06-08 15:16  
100 дівчат / 100 дівчат і одна в ліфті / 100 Girls (2000) 1080p Ukr/Eng | Sub Eng



Жанр: комедія
Країна: США



Кінокомпанія: Dream Entertainment
Режисер: Майкл Девіс
Актори: Джонатан Такер, Ларіса Олейнік, Еммануель Крікі, Жайме Пресслі, Крістіна Анапау, Кетрін Хейгл

Сюжет:
18-річний Мет працює техслужбовцем в будівлі жіночого коледжу. Одного разу ввечері після роботи він опинився в ліфті з однією студенткою, яку так і непобачив, тому що вимкнули світло, і їм довелося до ранку просидіти в кабіні. Там і сталася любов. Це було так чудово, що Мет відключився і прийшов до тями лише вранці. У кабіні він був один, а прекрасна незнайомка зникла, залишивши тільки трусики. Мет зрозумів, що закоханий на все життя і повинен знайти нічну супутницю. Але хто вона була? Єдине, що він знав - шукати її потрібно в жіночому гуртожитку ...


Тривалість: 01:34:46
Якість: 1080p [Amazon Video]
Відео:
кодек:
розмір кадру: 1920x1080
бітрейт: 13.9 Мб/с

Аудіо # 1: /
мова: українська
переклад: двоголосий закадровий
кодек: 2.0
бітрейт: 192 кб/с

Аудіо # 2:
мова: англійська
переклад: оригінал
кодек: E- 5.1
бітрейт: 640 кб/с

Субтитри: (Full)
мова: англійська
тип: програмні (м'які)
формат: *.srt
Info
General
Unique ID : 29596179105908277764131747277063955928 (0x1644044A3FC65400832D1D69B715A5D8)
Format :
Format version : Version 4 / Version 2
File size : 9.74 GiB
Duration : 1 h 34 min
Overall bit rate mode : Variable
Overall bit rate : 14.7 Mb/s
Movie name : 100 дівчат (100 дівчат і одна в ліфті) / 100 Girls (2000) [Amazon] 1080p [Ukr.Eng Sub.Eng] [Hurtom]
Encoded date : UTC 2018-06-12 23:21:10
Writing application : v21.0.0 ('Tardigrades Will Inherit The Earth') 64-bit
Writing library : libebml v1.3.5 + v1.4.8
Cover : Yes
Attachments : Cover.jpg

Video
ID : 1
Format : AVC
Format/Info : Advanced Video Codec
Format profile : [email protected]
Format settings : CABAC / 4 Ref Frames
Format settings, CABAC : Yes
Format settings, RefFrames : 4 frames
Codec ID : V_MPEG4/ISO/AVC
Duration : 1 h 34 min
Bit rate mode : Variable
Bit rate : 13.9 Mb/s
Maximum bit rate : 15.0 Mb/s
Width : 1 920 pixels
Height : 1 080 pixels
Display aspect ratio : 16:9
Frame rate mode : Constant
Frame rate : 23.976 (24000/1001) FPS
Color space : YUV
Chroma subsampling : 4:2:0
Bit depth : 8 bits
Scan type : Progressive
Bits/(Pixel*Frame) : 0.279
Stream size : 9.18 GiB (94%)
Title : 100 Girls (2000) [Amazon] 1080p [Ukr.Eng Sub.Eng] [Hurtom]
Writing library : core 148 r2623 d5b2374
Encoding settings : cabac=1 / ref=4 / deblock=1:-1:-1 / analyse=0x3:0x133 / me=umh / subme=9 / psy=1 / psy_rd=1.00:0.15 / mixed_ref=1 / me_range=24 / chroma_me=1 / trellis=2 / 8x8dct=1 / cqm=0 / deadzone=21,11 / fast_pskip=1 / chroma_qp_offset=-3 / threads=34 / lookahead_threads=5 / sliced_threads=0 / nr=150 / decimate=1 / interlaced=0 / bluray_compat=0 / constrained_intra=0 / bframes=8 / b_pyramid=2 / b_adapt=2 / b_bias=0 / direct=3 / weightb=1 / open_gop=0 / weightp=2 / keyint=120 / keyint_min=61 / scenecut=0 / intra_refresh=0 / rc_lookahead=120 / rc=crf / mbtree=1 / crf=18.0 / qcomp=0.60 / qpmin=0 / qpmax=69 / qpstep=4 / vbv_maxrate=15000 / vbv_bufsize=31250 / crf_max=0.0 / nal_hrd=vbr / filler=0 / ip_ratio=1.40 / aq=3:1.00
Language : English
Default : Yes
Forced : No
Color range : Limited
Color primaries : BT.709
Transfer characteristics : BT.709
Matrix coefficients : BT.709

Audio #1
ID : 2
Format : AC-3
Format/Info : Audio Coding 3
Codec ID : A_AC3
Duration : 1 h 34 min
Bit rate mode : Constant
Bit rate : 192 kb/s
Channel(s) : 2 channels
Channel positions : Front: L R
Sampling rate : 48.0 kHz
Frame rate : 31.250 FPS (1536 SPF)
Bit depth : 16 bits
Compression mode : Lossy
Stream size : 130 MiB (1%)
Title : DVO | Novy Kanal / K1 | 2.0 | 192 kbps
Language : Ukrainian
Service kind : Complete Main
Default : Yes
Forced : No

Audio #2
ID : 3
Format : E-AC-3
Format/Info : Enhanced Audio Coding 3
Codec ID : A_EAC3
Duration : 1 h 34 min
Bit rate mode : Constant
Bit rate : 640 kb/s
Channel(s) : 6 channels
Channel positions : Front: L C R, Side: L R, LFE
Sampling rate : 48.0 kHz
Frame rate : 187.500 FPS (256 SPF)
Compression mode : Lossy
Stream size : 434 MiB (4%)
Title : Original
Language : English
Service kind : Complete Main
Default : No
Forced : No

Text
ID : 4
Format : UTF-8
Codec ID : S_TEXT/UTF8
Codec ID/Info : UTF-8 Plain Text
Duration : 1 h 33 min
Bit rate : 94 b/s
Count of elements : 2309
Stream size : 64.9 KiB (0%)
Title : Original (Full)
Language : English
Default : No
Forced : No

Menu
00:00:00.000 : en:Chapter 1
00:08:08.000 : en:Chapter 2
00:17:14.000 : en:Chapter 3
00:26:44.000 : en:Chapter 4
00:33:45.000 : en:Chapter 5
00:43:36.000 : en:Chapter 6
00:53:04.000 : en:Chapter 7
01:01:33.000 : en:Chapter 8
01:11:23.000 : en:Chapter 9
01:18:29.000 : en:Chapter 10
01:24:57.000 : en:Chapter 11
01:30:15.000 : en:Chapter 12
Скріншоти












Джерело: &
Особиста оцінка: 0 - не дивився
Подяки:
п.olgaya, Sando7 за наданий сирий звук
п.bilenkuyboy за постер
п.JACKUS за опис та синхронізацію під DVD
п.taraskill1 за синхронізацію під

R - рейтинг стрічки, встановлений Американською асоціацією кінокомпаній

MPAA, англ. Motion Picture Association of America - Американська асоціація кінокомпаній

Рейтинг R — Restricted
Підлітки до 18 років допускаються на фільм тільки у супроводі одного з батьків, або їхнього законного представника.

Обмеження — до 18 років потрібний супровід одного з батьків або дорослого опікуна (вік може змінюватися в деяких регіонах). Даний рейтинг показує, що оціночна комісія вирішила, що деякий матеріал цього фільму призначається для дорослих. Батьки повинні більше дізнатися про фільм перш, ніж узяти на його перегляд дітей. Рейтинг R також може бути призначений через використовувану у фільмі мову, теми насильства, сексу або зображення вживання наркотиків.


Не забуваємо дякувати!


Срібний реліз (на рейтинг впливає 50% завантаженого)
 Трекер:    Зареєстрований   

Завантажити / скачати фільм українською



відео для новачків



 Зареєстрований:   2018-06-13 20:43
 Розмір:   9.74 GB 
 Оцінка фільму:   10/10 (Голосів: 2)
   
bot 
робот


З нами з: 30.09.07
Востаннє: 26.05.05
Повідомлень: 19957

2018-06-08 15:16  
Тему перенесено з Фільми в HD до форуму Анонси релізів


Pegass

bot 
робот


З нами з: 30.09.07
Востаннє: 26.05.05
Повідомлень: 19957

2018-06-13 20:43  
Тему перенесено з Анонси релізів до форуму Фільми в HD


Pegass

MasterYura 
Відео Гуртом - фільмокрай
Відео Гуртом - фільмокрай


З нами з: 21.11.09
Востаннє: 16.10.18
Повідомлень: 1025

2018-06-22 23:37  
в мене сильно спішать субтитри
субтутри на 24:14
... Barbara
у фільмі звучать на 24:34

Ваш часовий пояс: GMT + 2 Години

Нова тема   Відповісти