Кара небесна / Switch (1991) 1080p Ukr/Eng | Sub Eng

Нові коментарі

Нова тема   Відповісти
Автор Повідомлення
Anonymous 







2018-06-08 15:12  
Кара небесна / Switch (1991) 1080p Ukr/Eng | Sub Eng



Жанр: комедія
Країна: США



Кінокомпанія: Beco Films, Cinema Plus, Home Box Office (HBO)
Режисер: Блейк Едвардс
Актори: Еллен Баркін, Джиммі Смітс, ДжоБет Вільямс, Лоррейн Бракко, Тоні Робертс, Перрі Кінг, Брюс Пейн, Лізетт Ентоні

Сюжет:
Одного разу вранці відомий рекламний агент Стів Брукс, прокинувшись і відправившись у ванну, виявив у дзеркалі відображення ... жіночого обличчя і тіла. Потім з'ясувалося, що напередодні увечері з Бруксом розправилися три його жінки що ненавиділи його, але, згідно з карою небесною, герой повернувся на Землю в жіночому вигляді, щоб випробувати себе в шкірі і в плоті тих, кого він все життя зневажав. Відтепер Стів змушений бути сексапільної блондинкою Амандою, нібито зведеною сестрою самого себе, і відправитися в чоловічий світ - немов у Пекло, а до того ж повинен домогтися прихильності якої-небудь з жінок.


Тривалість: 01:43:23
Якість: 1080p [Amazon Video]
Відео:
кодек:
розмір кадру: 1920x1080
бітрейт: 12.9 Мб/с

Аудіо # 1:
мова: українська
переклад: двоголосий закадровий
кодек: 2.0
бітрейт: 192 кб/с

Аудіо # 2:
мова: англійська
переклад: оригінал
кодек: 2.0
бітрейт: 224 кб/с

Субтитри:
мова: англійська
тип: програмні (м'які)
формат: *.srt

Субтитри: (SDH)
мова: англійська
тип: програмні (м'які)
формат: *.srt
Info
General
Unique ID : 304311367194868916880932951434318933478 (0xE4F03CC9829D00737A8BE6C863856DE6)
Format :
Format version : Version 4 / Version 2
File size : 9.64 GiB
Duration : 1 h 43 min
Overall bit rate mode : Variable
Overall bit rate : 13.4 Mb/s
Movie name : Кара небесна / Switch (1991) [Amazon] 1080p [Ukr.Eng Sub.Eng] [Hurtom]
Encoded date : UTC 2018-06-11 22:10:48
Writing application : v21.0.0 ('Tardigrades Will Inherit The Earth') 64-bit
Writing library : libebml v1.3.5 + v1.4.8
Cover : Yes
Attachments : Cover.jpg

Video
ID : 1
Format : AVC
Format/Info : Advanced Video Codec
Format profile : [email protected]
Format settings : CABAC / 4 Ref Frames
Format settings, CABAC : Yes
Format settings, RefFrames : 4 frames
Codec ID : V_MPEG4/ISO/AVC
Duration : 1 h 43 min
Bit rate mode : Variable
Bit rate : 12.9 Mb/s
Maximum bit rate : 15.0 Mb/s
Width : 1 920 pixels
Height : 1 080 pixels
Display aspect ratio : 16:9
Frame rate mode : Constant
Frame rate : 29.970 (30000/1001) FPS
Color space : YUV
Chroma subsampling : 4:2:0
Bit depth : 8 bits
Scan type : Progressive
Bits/(Pixel*Frame) : 0.208
Stream size : 9.34 GiB (97%)
Title : Switch (1991) [Amazon] 1080p [Ukr.Eng Sub.Eng] [Hurtom]
Language : English
Default : Yes
Forced : No
Color range : Limited
Color primaries : BT.709
Transfer characteristics : BT.709
Matrix coefficients : BT.709

Audio #1
ID : 2
Format : AC-3
Format/Info : Audio Coding 3
Codec ID : A_AC3
Duration : 1 h 43 min
Bit rate mode : Constant
Bit rate : 192 kb/s
Channel(s) : 2 channels
Channel positions : Front: L R
Sampling rate : 48.0 kHz
Frame rate : 31.250 FPS (1536 SPF)
Bit depth : 16 bits
Compression mode : Lossy
Delay relative to video : 15 s 30 ms
Stream size : 142 MiB (1%)
Title : DVO | Novy Kanal | 2.0 | 192 kbps
Language : Ukrainian
Service kind : Complete Main
Default : Yes
Forced : No

Audio #2
ID : 3
Format : AC-3
Format/Info : Audio Coding 3
Codec ID : A_AC3
Duration : 1 h 43 min
Bit rate mode : Constant
Bit rate : 224 kb/s
Channel(s) : 2 channels
Channel positions : Front: L R
Sampling rate : 48.0 kHz
Frame rate : 31.250 FPS (1536 SPF)
Bit depth : 16 bits
Compression mode : Lossy
Stream size : 166 MiB (2%)
Title : Original
Language : English
Service kind : Complete Main
Default : No
Forced : No

Text #1
ID : 4
Format : UTF-8
Codec ID : S_TEXT/UTF8
Codec ID/Info : UTF-8 Plain Text
Duration : 1 h 42 min
Bit rate : 68 b/s
Count of elements : 1875
Stream size : 51.3 KiB (0%)
Title : Original
Language : English
Default : No
Forced : No

Text #2
ID : 5
Format : UTF-8
Codec ID : S_TEXT/UTF8
Codec ID/Info : UTF-8 Plain Text
Duration : 1 h 42 min
Bit rate : 70 b/s
Count of elements : 1956
Stream size : 52.8 KiB (0%)
Title : Original (SDH)
Language : English
Default : No
Forced : No
Скріншоти













Джерело: &
Особиста оцінка: 0 - не дивився
Подяки:
п.olgaya за сирий звук
п.JACKUS за опис
п.??? за синхронізацію під

R - рейтинг стрічки, встановлений Американською асоціацією кінокомпаній

MPAA, англ. Motion Picture Association of America - Американська асоціація кінокомпаній

Рейтинг R — Restricted
Підлітки до 18 років допускаються на фільм тільки у супроводі одного з батьків, або їхнього законного представника.

Обмеження — до 18 років потрібний супровід одного з батьків або дорослого опікуна (вік може змінюватися в деяких регіонах). Даний рейтинг показує, що оціночна комісія вирішила, що деякий матеріал цього фільму призначається для дорослих. Батьки повинні більше дізнатися про фільм перш, ніж узяти на його перегляд дітей. Рейтинг R також може бути призначений через використовувану у фільмі мову, теми насильства, сексу або зображення вживання наркотиків.


Не забуваємо дякувати!


Срібний реліз (на рейтинг впливає 50% завантаженого)
 Трекер:    Зареєстрований   

Завантажити / скачати фільм українською



відео для новачків



 Зареєстрований:   2018-06-13 20:44
 Розмір:   9.64 GB 
 Оцінка фільму:   10/10 (Голосів: 1)
   
Інші релізи
   Кара небесна / Switch (1991) Ukr/Eng | sub Eng JACKUS  3 / 0   1.75 GB   2010-10-02 14:55 
bot 
робот


З нами з: 30.09.07
Востаннє: 26.05.05
Повідомлень: 19138

2018-06-08 15:12  
Тему перенесено з Фільми в HD до форуму Анонси релізів


Pegass

bot 
робот


З нами з: 30.09.07
Востаннє: 26.05.05
Повідомлень: 19138

2018-06-13 20:44  
Тему перенесено з Анонси релізів до форуму Фільми в HD


Pegass

Ваш часовий пояс: GMT + 2 Години

Нова тема   Відповісти