Чорна діра / The Black Hole (1979) 1080p Ukr/Eng | Sub Eng

Нові коментарі

Нова тема   Відповісти
Останній раз роздавалося anarchotourist (2019-05-27)
Автор Повідомлення
Anonymous 







2018-06-08 15:06  
Чорна діра / The Black Hole (1979) 1080p Ukr/Eng | Sub Eng



Жанр: бойовик, фантастика, пригодницький
Країна: США



Кінокомпанія: Walt Disney Productions
Режисер: Ґарі Нельсон (Gary Nelson)
Актори: Максиміліан Шелл (Maximilian Schell), Ентоні Перкінс (Anthony Perkins), Роберт Форстер (Robert Forster), Джосеф Боттомс (Joseph Bottoms) та інші.

Сюжет:
Далеке майбутнє .. Космічний корабель «Паломіно», пролітаючи повз «чорну діру», виявив на орбіті зниклий безвісти 12 років тому зореліт «Лебідь». Не дивлячись на загрозу бути навіки полоненими жахливим полем тяжіння «дірки», екіпаж «Паломіно» приймає фатальне рішення зійти на борт міжзоряного «летючого голландця» і розгадати таємницю його зникнення.
Що ж побачили астронавти: корабель населений тільки роботами, а єдиною людиною виявився доктор Гайнс Рейнґардт, геніальний, але явно божевільний учений, який одержимий ідеєю проникнення в «чорну діру» і готовий поставити на карту і своє і чужі життя, аби здійснити свою шалену мрію про стрибок у безодню.


Тривалість: 01:31:21
Якість: 1080p [Amazon Video]
Відео:
кодек:
розмір кадру: 1920x816
бітрейт: 14,6 Мб/с

Аудіо # 1:
мова: українська
переклад: двоголосий закадровий
кодек: 2.0
бітрейт: 192 кб/с
Інформація про озвучення
Текст читали актори: Олександр Завальський та Ніна Касторф.
Запис звуку з трансляції телеканалу "1+1" (DVB-T2), 09.08.2013 рік.
Аудіо # 2:
мова: англійська
переклад: оригінал
кодек: 5.1
бітрейт: 384 кб/с

Субтитри: (Тільки назва фільму)
мова: німецька
тип: вбудовані (жорсткі)

Субтитри:
мова: англійська
тип: програмні (м'які)
формат: *.srt
Info
General
Unique ID : 307990612318493199485174838880450081515 (0xE7B4D593BAF146A01E23E4597DFB72EB)
Format :
Format version : Version 4 / Version 2
File size : 9.66 GiB
Duration : 1 h 31 min
Overall bit rate mode : Variable
Overall bit rate : 15.1 Mb/s
Movie name : Чорна діра / The Black Hole (1979) [Amazon] 1080p [Ukr.Eng Sub.Eng] [Hurtom]
Encoded date : UTC 2018-07-08 13:36:52
Writing application : v21.0.0 ('Tardigrades Will Inherit The Earth') 64-bit
Writing library : libebml v1.3.5 + v1.4.8
Cover : Yes
Attachments : Cover.jpg

Video
ID : 1
Format : AVC
Format/Info : Advanced Video Codec
Format profile : [email protected]
Format settings : CABAC / 4 Ref Frames
Format settings, CABAC : Yes
Format settings, RefFrames : 4 frames
Codec ID : V_MPEG4/ISO/AVC
Duration : 1 h 31 min
Bit rate mode : Variable
Bit rate : 14.6 Mb/s
Maximum bit rate : 15.0 Mb/s
Width : 1 920 pixels
Height : 816 pixels
Display aspect ratio : 2.35:1
Frame rate mode : Constant
Frame rate : 25.000 FPS
Color space : YUV
Chroma subsampling : 4:2:0
Bit depth : 8 bits
Scan type : Progressive
Bits/(Pixel*Frame) : 0.372
Stream size : 9.29 GiB (96%)
Title : The Black Hole (1979) [Amazon] 1080p [Ukr.Eng Sub.Eng] [Hurtom]
Language : English
Default : Yes
Forced : No
Color range : Limited
Color primaries : BT.709
Transfer characteristics : BT.709
Matrix coefficients : BT.709

Audio #1
ID : 2
Format : AC-3
Format/Info : Audio Coding 3
Codec ID : A_AC3
Duration : 1 h 31 min
Bit rate mode : Constant
Bit rate : 192 kb/s
Channel(s) : 2 channels
Channel positions : Front: L R
Sampling rate : 48.0 kHz
Frame rate : 31.250 FPS (1536 SPF)
Bit depth : 16 bits
Compression mode : Lossy
Stream size : 126 MiB (1%)
Title : DVO | 1+1 | 2.0 | 192 kbps
Language : Ukrainian
Service kind : Complete Main
Default : Yes
Forced : No

Audio #2
ID : 3
Format : AC-3
Format/Info : Audio Coding 3
Codec ID : A_AC3
Duration : 1 h 31 min
Bit rate mode : Constant
Bit rate : 384 kb/s
Channel(s) : 6 channels
Channel positions : Front: L C R, Side: L R, LFE
Sampling rate : 48.0 kHz
Frame rate : 31.250 FPS (1536 SPF)
Bit depth : 16 bits
Compression mode : Lossy
Stream size : 251 MiB (3%)
Title : Original
Language : English
Service kind : Complete Main
Default : No
Forced : No

Text
ID : 4
Format : UTF-8
Codec ID : S_TEXT/UTF8
Codec ID/Info : UTF-8 Plain Text
Duration : 1 h 23 min
Bit rate : 54 b/s
Count of elements : 793
Stream size : 32.9 KiB (0%)
Title : Original (Full)
Language : English
Default : No
Forced : No
Скріншоти





Джерело: &
Особиста оцінка: 0 - не дивився
Подяки:
п.robotron005 за запис із ТБ, за опис та синхронізацію під DVD.

PG - рейтинг стрічки, встановлений Американською асоціацією кінокомпаній

MPAA, англ. Motion Picture Association of America - Американська асоціація кінокомпаній

Рейтинг PG — Parental guidance suggested
Дітям рекомендується дивитися фільм разом з батьками.

Рекомендується присутність батьків. Деякий матеріал, можливо, не підходить для дітей. Даний рейтинг показує, що оцінений фільм може містити деякі сцени, проглядання яких маленькими дітьми може не сподобатися їх батькам. Матеріал, який може бути присутнім у фільмі, повинен бути пояснений дітям перш, ніж їм дозволять відвідати фільм. Явні сексуальні сцени і сцени вживання наркотиків відсутні; нагота, якщо й присутня, то тільки дуже обмежено, жах і насильство не перевищують помірного рівня.


Не забуваємо дякувати!


Срібний реліз (на рейтинг впливає 50% завантаженого)
 Трекер:    Зареєстрований   

Завантажити / скачати фільм українською



відео для новачків



 Зареєстрований:   2018-07-08 17:45
 Розмір:   9.66 GB 
 Оцінка фільму:   10/10 (Голосів: 4)
   
Інші релізи
   Чорна діра / The Black Hole (1979) Ukr/Eng robotron005  1 / 0   1.58 GB   2013-08-10 22:50 
bot 
робот


З нами з: 30.09.07
Востаннє: 26.05.05
Повідомлень: 25677

2018-07-08 17:45  
Тему перенесено з Анонси релізів до форуму Фільми в HD


Pegass

Ваш часовий пояс: GMT + 2 Години

Нова тема   Відповісти