Вгадай, хто / Guess Who (2005) 1080p Ukr/Eng | Sub Eng

Нові коментарі

Нова тема   Відповісти
Автор Повідомлення
Anonymous 







2018-06-08 14:03  
Вгадай, хто / Guess Who (2005) 1080p Ukr/Eng | Sub Eng




Жанр: комедія, мелодрама
Країна: США



Кінокомпанія: Columbia Pictures Corporation, Regency Enterprises, 3 Art Entertainment, Tall Trees Productions, Katalyst Films, Epsilon Motion Pictures
Режисер: Кевін Родні Салліван / Kevin Rodney Sullivan
Актори: Берні Мак / Bernie Mac, Ештон Катчер / Ashton Kutcher, Зої Салдана / Zoe Saldana, Джудіт Скотт / Judith Scott, Хал Вільямс / Hal Williams, Келлі Стьюарт / Kellee Stewart, Роберт Кертіс Браун / Robert Curtis Brown, РонРіко Лі / RonReaco Lee, Паула Ньюсом / Paula Newsome, Філ Рівз / Phil Reeves, Шеррі Шепард / Sherri Shepherd, Ніколь Салліван / Nicole Sullivan, Джессіка Коффі / Jessica Cauffiel, ДжоНелл Кеннеді / JoNell Kennedy, Несі Неш / Niecy Nash

Сюжет:
Афро-американець Персi Джонс вважає, що руки його дочки гідний лише найкращий хлопець у світі. Тому коли дівчина закохується i справа йде до весілля, Персi проводить розслідування щодо майбутнього зятя, Саймона Гріна, i бачить, що цей юнак - перспективний біржовий службовець без плям у біографії. Але, познайомившись з Саймоном, Персi дізнається жахливу правду: наречений його дочки... білий.


Тривалість: 01:45:04
Якість: 1080p [Amazon Video]
Відео:
кодек:
розмір кадру: 1920x1080
бітрейт: 11,2 Мб/с

Аудіо # 1:
мова: українська
переклад: двоголосий закадровий
кодек: 2.0
бітрейт: 192 кб/с
Інформація про озвучення
чоловічі ролі озвучив Дмитро Завадський
Аудіо # 2:
мова: англійська
переклад: оригінал
кодек: E- 5.1
бітрейт: 640 кб/с

Субтитри: (Full)
мова: англійська
тип: програмні (м'які)
формат: *.srt

Субтитри: (SDH)
мова: англійська
тип: програмні (м'які)
формат: *.srt
Info

General
Unique ID : 174341412190305950969272683538283042992 (0x8328EF43CEA929ADBF0BC90A7BB918B0)
Format :
Format version : Version 4 / Version 2
File size : 8.86 GiB
Duration : 1 h 45 min
Overall bit rate mode : Variable
Overall bit rate : 12.1 Mb/s
Movie name : Вгадай, хто / Guess Who (2005) [Amazon] 1080p [Ukr.Eng Sub.Eng] [Hurtom]
Encoded date : UTC 2018-07-01 19:48:45
Writing application : v21.0.0 ('Tardigrades Will Inherit The Earth') 64-bit
Writing library : libebml v1.3.5 + v1.4.8
Cover : Yes
Attachments : Cover.jpg

Video
ID : 1
Format : AVC
Format/Info : Advanced Video Codec
Format profile : [email protected]
Format settings : CABAC / 4 Ref Frames
Format settings, CABAC : Yes
Format settings, RefFrames : 4 frames
Codec ID : V_MPEG4/ISO/AVC
Duration : 1 h 45 min
Bit rate mode : Variable
Bit rate : 11.2 Mb/s
Maximum bit rate : 15.0 Mb/s
Width : 1 920 pixels
Height : 1 080 pixels
Display aspect ratio : 16:9
Frame rate mode : Constant
Frame rate : 23.976 (24000/1001) FPS
Color space : YUV
Chroma subsampling : 4:2:0
Bit depth : 8 bits
Scan type : Progressive
Bits/(Pixel*Frame) : 0.226
Stream size : 8.24 GiB (93%)
Title : Guess Who (2005) [Amazon] 1080p [Ukr.Eng Sub.Eng] [Hurtom]
Writing library : core 148 r2623 d5b2374
Encoding settings : cabac=1 / ref=4 / deblock=1:-1:-1 / analyse=0x3:0x133 / me=umh / subme=9 / psy=1 / psy_rd=1.00:0.15 / mixed_ref=1 / me_range=24 / chroma_me=1 / trellis=2 / 8x8dct=1 / cqm=0 / deadzone=21,11 / fast_pskip=1 / chroma_qp_offset=-3 / threads=34 / lookahead_threads=5 / sliced_threads=0 / nr=150 / decimate=1 / interlaced=0 / bluray_compat=0 / constrained_intra=0 / bframes=8 / b_pyramid=2 / b_adapt=2 / b_bias=0 / direct=3 / weightb=1 / open_gop=0 / weightp=2 / keyint=120 / keyint_min=61 / scenecut=0 / intra_refresh=0 / rc_lookahead=120 / rc=crf / mbtree=1 / crf=18.0 / qcomp=0.60 / qpmin=0 / qpmax=69 / qpstep=4 / vbv_maxrate=15000 / vbv_bufsize=31250 / crf_max=0.0 / nal_hrd=vbr / filler=0 / ip_ratio=1.40 / aq=3:1.00
Language : English
Default : Yes
Forced : No
Color range : Limited
Color primaries : BT.709
Transfer characteristics : BT.709
Matrix coefficients : BT.709

Audio #1
ID : 2
Format : AC-3
Format/Info : Audio Coding 3
Codec ID : A_AC3
Duration : 1 h 45 min
Bit rate mode : Constant
Bit rate : 192 kb/s
Channel(s) : 2 channels
Channel positions : Front: L R
Sampling rate : 48.0 kHz
Frame rate : 31.250 FPS (1536 SPF)
Bit depth : 16 bits
Compression mode : Lossy
Stream size : 144 MiB (2%)
Title : DVO | Novy Kanal | 2.0 | 192 kbps
Language : Ukrainian
Service kind : Complete Main
Default : Yes
Forced : No

Audio #2
ID : 3
Format : E-AC-3
Format/Info : Enhanced Audio Coding 3
Codec ID : A_EAC3
Duration : 1 h 45 min
Bit rate mode : Constant
Bit rate : 640 kb/s
Channel(s) : 6 channels
Channel positions : Front: L C R, Side: L R, LFE
Sampling rate : 48.0 kHz
Frame rate : 187.500 FPS (256 SPF)
Compression mode : Lossy
Stream size : 481 MiB (5%)
Title : Original
Language : English
Service kind : Complete Main
Default : No
Forced : No

Text #1
ID : 4
Format : UTF-8
Codec ID : S_TEXT/UTF8
Codec ID/Info : UTF-8 Plain Text
Duration : 1 h 43 min
Bit rate : 82 b/s
Count of elements : 1626
Stream size : 62.3 KiB (0%)
Title : Original (Full)
Language : English
Default : No
Forced : No

Text #2
ID : 5
Format : UTF-8
Codec ID : S_TEXT/UTF8
Codec ID/Info : UTF-8 Plain Text
Duration : 1 h 44 min
Bit rate : 94 b/s
Count of elements : 2616
Stream size : 72.2 KiB (0%)
Title : Original (SDH)
Language : English
Default : No
Forced : No
Скріншоти














Джерело: &
Особиста оцінка: 0 - не дивився
Подяки:
п.dvorsky та п.Technomate за звукову доріжку.
п.karvai0 за синхронізацію та опис.
п.hellforces за постер.

PG-13 - рейтинг стрічки, встановлений Американською асоціацією кінокомпаній

MPAA, англ. Motion Picture Association of America - Американська асоціація кінокомпаній

Рейтинг PG-13 — Parents strongly cautioned
Діти до 13 років допускаються на фільм тільки з батьками.

Настійне застереження батькам. Деякий матеріал може бути недоречним для перегляду дітей до 13 років. Даний рейтинг показує, що оцінений фільм може непідходити для дітей. Батьки повинні бути особливо обережні, дозволяючи своїм маленьким дітям перегляд. Грубе або тривале насильство відсутнє; сексуальна орієнтація на наготу відсутня; деякі сцени вживання наркотиків можуть бути присутніми; можна почути одиничні вживання грубої сексуальної лексики.


Не забуваємо дякувати!


 Трекер:    Зареєстрований   

Завантажити / скачати фільм українською



відео для новачків



 Зареєстрований:   2018-07-01 22:30
 Розмір:   8.86 GB 
 Оцінка фільму:   8/10 (Голосів: 6)
   
Інші релізи
   Вгадай, хто / Guess Who (2005) 720p Ukr/Eng | Sub Eng Mr Yuran  0 / 1   3.39 GB   2014-01-19 16:32 
   Вгадай, хто / Guess Who (2005) Ukr/Eng | Sub Eng karvai0  3 / 0   1.78 GB   2012-06-23 13:49 
   Вгадай, хто / Guess Who (2005) Skiff  2 / 0   1.4 GB   2008-06-13 17:18 
bot 
робот


З нами з: 30.09.07
Востаннє: 26.05.05
Повідомлень: 20322

2018-07-01 22:30  
Тему перенесено з Анонси релізів до форуму Фільми в HD


Pegass

pvm 
Поважний учасник


З нами з: 05.03.10
Востаннє: 11.12.18
Повідомлень: 213

2018-07-08 20:14  
Світ перевернувся догори дригом.
Ваш часовий пояс: GMT + 2 Години

Нова тема   Відповісти