Везунчик / Fluke (1995) 1080p Ukr/Eng | Sub Eng

Нові коментарі

Нова тема   Відповісти
Автор Повідомлення
Anonymous 







2018-06-08 14:53  
Везунчик / Fluke (1995) 1080p Ukr/Eng | Sub Eng



Жанр: драма, сімейний
Країна: США



Кінокомпанія: Metro-Goldwyn-Mayer
Режисер: Карло Карлей
Актори: Семюел Л. Джексон (голос), Метью Модін (голос), Ненсі Тревіс, Макс Поміренк, Ерік Штольц, Рон Перлман

Сюжет:
Душа загиблого в автомобільній катастрофі молодого чоловіка переселяється в чарівне новонароджене цуценя. Поступово зростаючи, він знаходить свою сім'ю і згадує минуле життя. Як з'ясовується, він не завжди був правий, коли був людиною.


Тривалість: 01:35:39
Якість: 1080p [Amazon Video]
Відео:
кодек:
розмір кадру: 1920x1040
бітрейт: 12.8 Мб/с

Аудіо # 1: /
мова: українська
переклад: багатоголосий закадровий
кодек: 2.0
бітрейт: 192 кб/с

Аудіо # 2:
мова: англійська
переклад: оригінал
кодек: E- 2.0
бітрейт: 224 кб/с

Субтитри: (SDH)
мова: англійська
тип: програмні (м'які)
формат: *.srt
Info

General
Unique ID : 51560307537374827902605202968243932988 (0x26CA276E09DC3333EA6BC1013A690F3C)
Format :
Format version : Version 4 / Version 2
File size : 8.83 GiB
Duration : 1 h 35 min
Overall bit rate mode : Variable
Overall bit rate : 13.2 Mb/s
Movie name : Везунчик / Fluke (1995) [Amazon] 1080p [Ukr.Eng Sub.Eng] [Hurtom]
Encoded date : UTC 2018-06-15 21:24:54
Writing application : v21.0.0 ('Tardigrades Will Inherit The Earth') 64-bit
Writing library : libebml v1.3.5 + v1.4.8
Cover : Yes
Attachments : Cover.jpg

Video
ID : 1
Format : AVC
Format/Info : Advanced Video Codec
Format profile : [email protected]
Format settings : CABAC / 4 Ref Frames
Format settings, CABAC : Yes
Format settings, RefFrames : 4 frames
Codec ID : V_MPEG4/ISO/AVC
Duration : 1 h 35 min
Bit rate mode : Variable
Bit rate : 12.8 Mb/s
Maximum bit rate : 15.0 Mb/s
Width : 1 920 pixels
Height : 1 040 pixels
Display aspect ratio : 1.85:1
Frame rate mode : Constant
Frame rate : 23.976 (24000/1001) FPS
Color space : YUV
Chroma subsampling : 4:2:0
Bit depth : 8 bits
Scan type : Progressive
Bits/(Pixel*Frame) : 0.268
Stream size : 8.56 GiB (97%)
Title : Fluke (1995) [Amazon] 1080p [Ukr.Eng Sub.Eng] [Hurtom]
Writing library : core 148 r2623 d5b2374
Encoding settings : cabac=1 / ref=4 / deblock=1:-1:-1 / analyse=0x3:0x133 / me=umh / subme=9 / psy=1 / psy_rd=1.00:0.15 / mixed_ref=1 / me_range=24 / chroma_me=1 / trellis=2 / 8x8dct=1 / cqm=0 / deadzone=21,11 / fast_pskip=1 / chroma_qp_offset=-3 / threads=32 / lookahead_threads=5 / sliced_threads=0 / nr=150 / decimate=1 / interlaced=0 / bluray_compat=0 / constrained_intra=0 / bframes=8 / b_pyramid=2 / b_adapt=2 / b_bias=0 / direct=3 / weightb=1 / open_gop=0 / weightp=2 / keyint=120 / keyint_min=61 / scenecut=0 / intra_refresh=0 / rc_lookahead=120 / rc=crf / mbtree=1 / crf=18.0 / qcomp=0.60 / qpmin=0 / qpmax=69 / qpstep=4 / vbv_maxrate=15000 / vbv_bufsize=31250 / crf_max=0.0 / nal_hrd=vbr / filler=0 / ip_ratio=1.40 / aq=3:1.00
Language : English
Default : Yes
Forced : No
Color range : Limited
Color primaries : BT.709
Transfer characteristics : BT.709
Matrix coefficients : BT.709

Audio #1
ID : 2
Format : AC-3
Format/Info : Audio Coding 3
Codec ID : A_AC3
Duration : 1 h 29 min
Bit rate mode : Constant
Bit rate : 192 kb/s
Channel(s) : 2 channels
Channel positions : Front: L R
Sampling rate : 48.0 kHz
Frame rate : 31.250 FPS (1536 SPF)
Bit depth : 16 bits
Compression mode : Lossy
Stream size : 123 MiB (1%)
Title : MVO | 1+1 / TET | 2.0 | 192 kbps
Language : Ukrainian
Service kind : Complete Main
Default : Yes
Forced : No

Audio #2
ID : 3
Format : E-AC-3
Format/Info : Enhanced Audio Coding 3
Codec ID : A_EAC3
Duration : 1 h 35 min
Bit rate mode : Constant
Bit rate : 224 kb/s
Channel(s) : 2 channels
Channel positions : Front: L R
Sampling rate : 48.0 kHz
Frame rate : 187.500 FPS (256 SPF)
Compression mode : Lossy
Stream size : 153 MiB (2%)
Title : Original
Language : English
Service kind : Complete Main
Default : No
Forced : No

Text
ID : 4
Format : UTF-8
Codec ID : S_TEXT/UTF8
Codec ID/Info : UTF-8 Plain Text
Duration : 1 h 28 min
Bit rate : 29 b/s
Count of elements : 586
Stream size : 19.2 KiB (0%)
Title : Original (SDH)
Language : English
Default : No
Forced : No
Скріншоти












Джерело: &
Особиста оцінка: 0 - не дивився
Подяки:
п.Givi за опис.
п.Arsenfpu за синхронізацію.
п.Bohdan237, п.karvai0 за запис із ТБ.
п.Ermolenko за постер.

PG - рейтинг стрічки, встановлений Американською асоціацією кінокомпаній

MPAA, англ. Motion Picture Association of America - Американська асоціація кінокомпаній

Рейтинг PG — Parental guidance suggested
Дітям рекомендується дивитися фільм разом з батьками.

Рекомендується присутність батьків. Деякий матеріал, можливо, не підходить для дітей. Даний рейтинг показує, що оцінений фільм може містити деякі сцени, проглядання яких маленькими дітьми може не сподобатися їх батькам. Матеріал, який може бути присутнім у фільмі, повинен бути пояснений дітям перш, ніж їм дозволять відвідати фільм. Явні сексуальні сцени і сцени вживання наркотиків відсутні; нагота, якщо й присутня, то тільки дуже обмежено, жах і насильство не перевищують помірного рівня.


Не забуваємо дякувати!


Срібний реліз (на рейтинг впливає 50% завантаженого)
 Трекер:    Зареєстрований   

Завантажити / скачати фільм українською



відео для новачків



 Зареєстрований:   2018-06-16 01:33
 Розмір:   8.83 GB 
 Оцінка фільму:   10/10 (Голосів: 4)
   
Інші релізи
   Везунчик / Fluke (1995) Arsenfpu  2 / 0   1.31 GB   2018-01-23 17:24 
bot 
робот


З нами з: 30.09.07
Востаннє: 26.05.05
Повідомлень: 25643

2018-06-08 14:53  
Тему перенесено з Фільми в HD до форуму Анонси релізів


Pegass

bot 
робот


З нами з: 30.09.07
Востаннє: 26.05.05
Повідомлень: 25643

2018-06-16 01:33  
Тему перенесено з Анонси релізів до форуму Фільми в HD


Pegass

Oleksa9 
VIP


З нами з: 17.05.12
Востаннє: 28.09.20
Повідомлень: 412

2018-06-16 06:43  
Кого й куди везуть?
Anonymous 







2018-06-16 11:01  
Oleksa9 написано:
Кого й куди везуть?

https://toloka.to/t16915#227308

Правила оформлення відео-релізу
Правила оформлення
Цитата:
2. Назва.
Обов'язково вказувати назву фільму, яку йому дала студія озвучення. Якщо назва має декілька варіантів або релізер хоче дати свій, вони пишуться через знак "/" в наступній послідовності: Варіант української назви / Інший варіант української назви / Оригінальна назва / Інші варіанти в інших мовах. Послідовність українських назв довільна.

https://toloka.to/t201

Ваш часовий пояс: GMT + 2 Години

Нова тема   Відповісти