Реставрація / Restoration (1995) 1080p Ukr/Eng | Sub Eng

Нові коментарі

Нова тема   Відповісти
Автор Повідомлення
Anonymous 







2018-06-08 13:50  
Реставрація / Restoration (1995) 1080p Ukr/Eng | Sub Eng



Жанр: біографічний, драма, історичний, романтичний
Країна: США, Велика Британія



Кінокомпанія: Avenue Pictures, Miramax, Segue Productions
Режисер: Майкл Гоффман
Актори: Роберт Дауні-молодший, Сем Нілл, Девід Тьюліс, Поллі Вокер, Меґ Раян , Ян МакКеллен, Г’ю Ґрант, Єн МакДермід, Мері Маклеод, Сенді Макдейд, Розалінд Беннетт, Віллі Росс, Девід Ґант, Бенджамін Вітроу

Сюжет:
«Реставрація» — костюмований історичний кінофільм за романом Роуз Тремейн про період британської історії, що наступила після смерті Олівера Кромвеля та реставрації монархії в країні.


Тривалість: 01:57:44
Якість: 1080p [Amazon Video]
Відео:
кодек:
розмір кадру: 1920x1080
бітрейт: 10 000 кб/с

Аудіо # 1:
мова: українська
переклад: багатоголосий закадровий
кодек: 2.0
бітрейт: 192 кб/с

Аудіо # 2: (DVD)
мова: англійська
переклад: оригінал
кодек: 5.1
бітрейт: 448 кб/с

Аудіо # 3: (Amazon Video)
мова: англійська
переклад: оригінал
кодек: 2.0
бітрейт: 125 кб/с

Субтитри:
мова: англійська
тип: програмні (м'які)
формат: *.srt
Info
General
Unique ID : 13558444498542187964507652602534231251 (0xA3342ECCEE25AED5A14F2DF54CAFCD3)
Format :
Format version : Version 4 / Version 2
File size : 8.78 GiB
Duration : 1 h 57 min
Overall bit rate : 10.7 Mb/s
Movie name : Реставрація / Restoration (1995) [Amazon] 1080p [Ukr.Eng Sub.Eng] [Hurtom]
Encoded date : UTC 2018-06-11 14:11:26
Writing application : v21.0.0 ('Tardigrades Will Inherit The Earth') 64-bit
Writing library : libebml v1.3.5 + v1.4.8
Cover : Yes
Attachments : Cover.jpg

Video
ID : 1
Format : AVC
Format/Info : Advanced Video Codec
Format profile : [email protected]
Format settings : CABAC / 4 Ref Frames
Format settings, CABAC : Yes
Format settings, RefFrames : 4 frames
Codec ID : V_MPEG4/ISO/AVC
Duration : 1 h 57 min
Bit rate mode : Constant
Bit rate : 10 000 kb/s
Width : 1 920 pixels
Height : 1 080 pixels
Display aspect ratio : 16:9
Frame rate mode : Constant
Frame rate : 23.976 (24000/1001) FPS
Color space : YUV
Chroma subsampling : 4:2:0
Bit depth : 8 bits
Scan type : Progressive
Bits/(Pixel*Frame) : 0.201
Stream size : 8.15 GiB (93%)
Title : Restoration (1995) [Amazon] 1080p [Ukr.Eng Sub.Eng] [Hurtom]
Language : English
Default : Yes
Forced : No
Color range : Limited
Color primaries : BT.709
Transfer characteristics : BT.709
Matrix coefficients : BT.709

Audio #1
ID : 2
Format : AC-3
Format/Info : Audio Coding 3
Codec ID : A_AC3
Duration : 1 h 57 min
Bit rate mode : Constant
Bit rate : 192 kb/s
Channel(s) : 2 channels
Channel positions : Front: L R
Sampling rate : 48.0 kHz
Frame rate : 31.250 FPS (1536 SPF)
Bit depth : 16 bits
Compression mode : Lossy
Stream size : 162 MiB (2%)
Title : MVO | AMC | 2.0 | 192 kbps
Language : Ukrainian
Service kind : Complete Main
Default : Yes
Forced : No

Audio #2
ID : 3
Format : AC-3
Format/Info : Audio Coding 3
Codec ID : A_AC3
Duration : 1 h 57 min
Bit rate mode : Constant
Bit rate : 448 kb/s
Channel(s) : 6 channels
Channel positions : Front: L C R, Side: L R, LFE
Sampling rate : 48.0 kHz
Frame rate : 31.250 FPS (1536 SPF)
Bit depth : 16 bits
Compression mode : Lossy
Stream size : 377 MiB (4%)
Title : Original (DVD)
Language : English
Service kind : Complete Main
Default : No
Forced : No

Audio #3
ID : 4
Format :
Format/Info : Advanced Audio Codec
Format profile : LC
Codec ID : A_AAC-2
Duration : 1 h 57 min
Bit rate : 125 kb/s
Channel(s) : 2 channels
Channel positions : Front: L R
Sampling rate : 48.0 kHz
Frame rate : 46.875 FPS (1024 SPF)
Compression mode : Lossy
Stream size : 106 MiB (1%)
Title : Original (Amazon Video)
Language : English
Default : No
Forced : No

Text
ID : 5
Format : UTF-8
Codec ID : S_TEXT/UTF8
Codec ID/Info : UTF-8 Plain Text
Duration : 1 h 50 min
Bit rate : 54 b/s
Count of elements : 1354
Stream size : 43.7 KiB (0%)
Title : Original (SDH)
Language : English
Default : No
Forced : No

Menu
00:00:00.000 : en:Chapter 1
00:01:18.000 : en:Chapter 2
00:09:38.000 : en:Chapter 3
00:18:18.000 : en:Chapter 4
00:28:42.000 : en:Chapter 5
00:36:48.000 : en:Chapter 6
00:45:33.000 : en:Chapter 7
00:55:58.000 : en:Chapter 8
01:05:47.000 : en:Chapter 9
01:16:38.000 : en:Chapter 10
01:26:20.000 : en:Chapter 11
01:36:46.000 : en:Chapter 12
01:45:25.000 : en:Chapter 13
01:51:49.000 : en:Chapter 14
Скріншоти











Джерело: &
Особиста оцінка: 0 - не дивився
Подяки:
п.Sando7 за запис з ТБ
п.ninenine за опис та синхронізацію

R - рейтинг стрічки, встановлений Американською асоціацією кінокомпаній

MPAA, англ. Motion Picture Association of America - Американська асоціація кінокомпаній

Рейтинг R — Restricted
Підлітки до 18 років допускаються на фільм тільки у супроводі одного з батьків, або їхнього законного представника.

Обмеження — до 18 років потрібний супровід одного з батьків або дорослого опікуна (вік може змінюватися в деяких регіонах). Даний рейтинг показує, що оціночна комісія вирішила, що деякий матеріал цього фільму призначається для дорослих. Батьки повинні більше дізнатися про фільм перш, ніж узяти на його перегляд дітей. Рейтинг R також може бути призначений через використовувану у фільмі мову, теми насильства, сексу або зображення вживання наркотиків.


Не забуваємо дякувати!


Срібний реліз (на рейтинг впливає 50% завантаженого)
 Трекер:    Зареєстрований   

Завантажити / скачати фільм українською



відео для новачків



 Зареєстрований:   2018-06-13 20:44
 Розмір:   8.78 GB 
 Оцінка фільму:   10/10 (Голосів: 1)
   
Інші релізи
   Реставрація / Restoration (1995) Ukr/Eng ninenine  5 / 0   1.77 GB   2016-10-09 18:14 
bot 
робот


З нами з: 30.09.07
Востаннє: 26.05.05
Повідомлень: 19138

2018-06-08 13:50  
Тему перенесено з Фільми в HD до форуму Анонси релізів


Pegass

bot 
робот


З нами з: 30.09.07
Востаннє: 26.05.05
Повідомлень: 19138

2018-06-13 20:44  
Тему перенесено з Анонси релізів до форуму Фільми в HD


Pegass

Ваш часовий пояс: GMT + 2 Години

Нова тема   Відповісти