Бійцівський клуб / Fight Club (1999) 1080p [Open Matte] 2xUkr/Eng | Sub Eng

Нові коментарі

Нова тема   Відповісти
Автор Повідомлення
Anonymous 







2018-06-08 13:43  
Бійцівський клуб / Fight Club (1999) 1080p [Open Matte] 2xUkr/Eng | Sub Eng



Жанр: драма
Країна: США, Німеччина



Кінокомпанія: Fox 2000 Pictures, Regency Enterprises, Linson Films
Режисер: Девід Фінчер
Актори: Едвард Нортон, Бред Піт, Гелена Бонем Картер, Міт Лоуф, Зак Ґренір, Річмонд Аркет, Джаред Лето та інші

Сюжет:
Джек, страждає хронічним безсонням і відчайдушно намагається вирватися з нудного життя. Саме тоді він зустрічає Тайлера Дердена, торговця із збоченою філософією. Тайлер впевнений, що самовдосконалення — доля слабких, а саморуйнування — єдине, заради чого варто жити. І ось вже Джек і Тайлер луплять один одному пики на стоянці перед баром, що приносить їм неабияке задоволення. Залучаючи інших чоловіків до простих радощів фізичної жорстокості, Джек і Тайлер засновують таємний Бійцівський Клуб, який має величезний успіх. Але Джека чекає шокуючи відкриття, здатне змінити все...


Тривалість: 02:19:08
Якість: 1080p [Open Matte] [Amazon Video]
Відео:
кодек:
розмір кадру: 1920x1080
бітрейт: 5 120 кб/с

Аудіо # 1: /
мова: українська
переклад: двоголосий закадровий
кодек: 2.0
бітрейт: 192 кб/с
Інформація про озвучення
Ролі озвучили: Олесь Гімбаржевський
Аудіо # 2: /
мова: українська
переклад: двоголосий закадровий
кодек: 2.0
бітрейт: 192 кб/с
Інформація про озвучення
Ролі озвучили: Юрій Ребрик
Аудіо # 3:
мова: англійська
переклад: оригінал
кодек: 5.1
бітрейт: 1 509 кб/с
Info
General
Unique ID : 149575940165842463345968837996974613476 (0x70874738EFA895B10B42D6BEB9B6A3E4)
Format :
Format version : Version 4 / Version 2
File size : 6.61 GiB
Duration : 2 h 19 min
Overall bit rate : 6 797 kb/s
Movie name : Бійцівський клуб / Fight Club (1999) [Open Matte] [Amazon] 1080p [2xUkr.Eng] [Hurtom]
Encoded date : UTC 2018-06-13 11:33:47
Writing application : v21.0.0 ('Tardigrades Will Inherit The Earth') 64-bit
Writing library : libebml v1.3.5 + v1.4.8
Cover : Yes
Attachments : Cover.jpg

Video
ID : 1
Format : AVC
Format/Info : Advanced Video Codec
Format profile : [email protected]
Format settings : CABAC / 4 Ref Frames
Format settings, CABAC : Yes
Format settings, RefFrames : 4 frames
Codec ID : V_MPEG4/ISO/AVC
Duration : 2 h 19 min
Bit rate : 5 120 kb/s
Width : 1 920 pixels
Height : 1 080 pixels
Display aspect ratio : 16:9
Frame rate mode : Constant
Frame rate : 23.976 (24000/1001) FPS
Color space : YUV
Chroma subsampling : 4:2:0
Bit depth : 8 bits
Scan type : Progressive
Bits/(Pixel*Frame) : 0.103
Stream size : 4.76 GiB (72%)
Title : Fight Club (1999) [Open Matte] [Amazon] 1080p [2xUkr.Eng] [Hurtom]
Writing library : core 142
Encoding settings : cabac=1 / ref=3 / deblock=1:0:0 / analyse=0x3:0x113 / me=hex / subme=7 / psy=1 / psy_rd=1.00:0.00 / mixed_ref=1 / me_range=16 / chroma_me=1 / trellis=1 / 8x8dct=1 / cqm=0 / deadzone=21,11 / fast_pskip=1 / chroma_qp_offset=-2 / threads=48 / lookahead_threads=8 / sliced_threads=0 / nr=0 / decimate=1 / interlaced=0 / bluray_compat=0 / constrained_intra=0 / bframes=6 / b_pyramid=2 / b_adapt=1 / b_bias=0 / direct=1 / weightb=1 / open_gop=0 / weightp=2 / keyint=200 / keyint_min=20 / scenecut=0 / intra_refresh=0 / rc_lookahead=40 / rc=2pass / mbtree=1 / bitrate=5120 / ratetol=1.0 / qcomp=0.60 / qpmin=0 / qpmax=69 / qpstep=4 / cplxblur=20.0 / qblur=0.5 / vbv_maxrate=7680 / vbv_bufsize=20480 / nal_hrd=none / filler=0 / ip_ratio=1.40 / aq=1:1.00
Language : English
Default : Yes
Forced : No

Audio #1
ID : 2
Format : AC-3
Format/Info : Audio Coding 3
Codec ID : A_AC3
Duration : 2 h 19 min
Bit rate mode : Constant
Bit rate : 192 kb/s
Channel(s) : 2 channels
Channel positions : Front: L R
Sampling rate : 48.0 kHz
Frame rate : 31.250 FPS (1536 SPF)
Bit depth : 16 bits
Compression mode : Lossy
Stream size : 191 MiB (3%)
Title : DVO | 1+1 / 2+2 | 2.0 | 192 kbps
Language : Ukrainian
Service kind : Complete Main
Default : Yes
Forced : No

Audio #2
ID : 3
Format : AC-3
Format/Info : Audio Coding 3
Codec ID : A_AC3
Duration : 2 h 19 min
Bit rate mode : Constant
Bit rate : 192 kb/s
Channel(s) : 2 channels
Channel positions : Front: L R
Sampling rate : 48.0 kHz
Frame rate : 31.250 FPS (1536 SPF)
Bit depth : 16 bits
Compression mode : Lossy
Stream size : 191 MiB (3%)
Title : DVO | Novy Kanal / ICTV | 2.0 | 192 kbps
Language : Ukrainian
Service kind : Complete Main
Default : No
Forced : No

Audio #3
ID : 4
Format :
Format/Info : Digital Theater Systems
Codec ID : A_DTS
Duration : 2 h 19 min
Bit rate mode : Constant
Bit rate : 1 509 kb/s
Channel(s) : 6 channels
Channel positions : Front: L C R, Side: L R, LFE
Sampling rate : 48.0 kHz
Frame rate : 93.750 FPS (512 SPF)
Bit depth : 24 bits
Compression mode : Lossy
Stream size : 1.47 GiB (22%)
Title : Original
Language : English
Default : No
Forced : No
Скріншоти











Джерело: &
Особиста оцінка: 0 - не дивився
Подяки:
п.karvai0, urij546724, Vasua95 (AngryBirdsUA) за сирі записи доріжок # 1-2
п.??? (Із сайту Блюбірд) за синхронізацію під
п.Romario_O за опис
п.thefir за постер

R - рейтинг стрічки, встановлений Американською асоціацією кінокомпаній

MPAA, англ. Motion Picture Association of America - Американська асоціація кінокомпаній

Рейтинг R — Restricted
Підлітки до 18 років допускаються на фільм тільки у супроводі одного з батьків, або їхнього законного представника.

Обмеження — до 18 років потрібний супровід одного з батьків або дорослого опікуна (вік може змінюватися в деяких регіонах). Даний рейтинг показує, що оціночна комісія вирішила, що деякий матеріал цього фільму призначається для дорослих. Батьки повинні більше дізнатися про фільм перш, ніж узяти на його перегляд дітей. Рейтинг R також може бути призначений через використовувану у фільмі мову, теми насильства, сексу або зображення вживання наркотиків.


Не забуваємо дякувати!


Срібний реліз (на рейтинг впливає 50% завантаженого)
 Трекер:    Зареєстрований   

Завантажити / скачати фільм українською



відео для новачків



 Зареєстрований:   2018-06-13 20:43
 Розмір:   6.61 GB 
 Оцінка фільму:   10/10 (Голосів: 4)
   
bot 
робот


З нами з: 30.09.07
Востаннє: 26.05.05
Повідомлень: 19814

2018-06-08 13:43  
Тему перенесено з Фільми в HD до форуму Анонси релізів


Pegass

bot 
робот


З нами з: 30.09.07
Востаннє: 26.05.05
Повідомлень: 19814

2018-06-13 20:43  
Тему перенесено з Анонси релізів до форуму Фільми в HD


Pegass

Ваш часовий пояс: GMT + 2 Години

Нова тема   Відповісти