Із 13 в 30 / 13 Going on 30 (2004) AVC Ukr/Eng | Sub Eng

Нові коментарі

Нова тема   Відповісти
Автор Повідомлення
staf777 
Попереджень: 1
Попереджень: 1 


З нами з: 16.11.16
Востаннє: 17.11.18
Повідомлень: 1755

2018-06-07 19:43  
Із 13 в 30 / 13 Going on 30 (2004) AVC Ukr/Eng | Sub Eng

Із 13 в 30 / 13 Going on 30 (2004) AVC Ukr/Eng | Sub Eng
Альтернативний постер:



Жанр: фентезі, комедія, мелодрама
Країна: США



Кінокомпанія: Columbia Pictures
Режисер: Ґері Віник
Актори: Дженніфер Гарнер, Марк Руффало, Джуді Грір, Енді Серкіс, Кеті Бейкер, Філ Рівз, Семюел Болл, Марсія ДеБоніс, Кріста Б. Аллен, Шон Маркетт

Сюжет:
Діти так запекло прагнуть стати дорослими, не здогадуючись, що пройдуть роки, і вони так само жагуче захочуть зворотного. Але через те, що в нашому світі все ще трапляються дива, деяким не доводиться чекати довго, щоб переконатися в цьому. Сьогодні Дженні всього 13 і вона дуже хоче стати дорослою. Певно, її бажання потрапляє за правильною адресою, бо на ранок вона прокидається... 30-річною красунею! Немов хтось перемотав плівку з 17 роками життя. Тепер можна кричати "ура"? Тільки ось яка штука: для усіх ці роки пройшли звичайним порядком, але в дорослої Дженні, виявляється, душа дівчинки-підлітка, і це увесь час приводить до кумедних непорозумінь і ставить у безвихідь людей навколо...


Тривалість: 01:37:47
Якість: AVC
Відео:
кодек:
розмір кадру: 1024x552
бітрейт: 3197 кб/с

Аудіо # 1:
мова: українська
переклад: багатоголосий закадровий
кодек: 2.0
бітрейт: 192 кб/с

Аудіо # 2:
мова: англійська
переклад: оригінал
кодек: 5.1
бітрейт: 384 кб/с

Субтитри:
мова: англійська
тип: програмні (м'які)
формат: *.srt
Info
General
Unique ID : 174960147249289025670283607399967087793 (0x83A019422FD2D0F594A1E953790DDCB1)
Complete name : H:\Майбутні релізи\13 Going on 30 (2004) AVC [Ukr][Eng][Sub Eng][Hurtom].
Format :
Format version : Version 4 / Version 2
File size : 2.58 GiB
Duration : 1 h 37 min
Overall bit rate : 3 777 kb/s
Movie name : 13 Going on 30 (2004) AVC [Ukr][Eng][Sub Eng][Hurtom]
Encoded date : UTC 2018-06-07 16:47:20
Writing application : v9.8.0 ('Kuglblids') 64bit
Writing library : libebml v1.3.4 + v1.4.5
Cover : Yes
Attachments : cover.jpg

Video
ID : 1
Format : AVC
Format/Info : Advanced Video Codec
Format profile : [email protected]
Format settings : CABAC / 8 Ref Frames
Format settings, CABAC : Yes
Format settings, ReFrames : 8 frames
Codec ID : V_MPEG4/ISO/AVC
Duration : 1 h 37 min
Bit rate : 3 197 kb/s
Width : 1 024 pixels
Height : 552 pixels
Display aspect ratio : 1.85:1
Frame rate mode : Constant
Frame rate : 23.976 FPS
Color space : YUV
Chroma subsampling : 4:2:0
Bit depth : 8 bits
Scan type : Progressive
Bits/(Pixel*Frame) : 0.236
Stream size : 2.19 GiB (85%)
Title : by 0ptimus
Writing library : core 124 r2197 69a0443
Encoding settings : cabac=1 / ref=8 / deblock=1:-2:-1 / analyse=0x3:0x113 / me=umh / subme=11 / psy=1 / psy_rd=1.00:0.20 / mixed_ref=1 / me_range=32 / chroma_me=1 / trellis=2 / 8x8dct=1 / cqm=0 / deadzone=21,11 / fast_pskip=0 / chroma_qp_offset=-3 / threads=4 / sliced_threads=0 / nr=0 / decimate=0 / interlaced=0 / bluray_compat=0 / constrained_intra=0 / bframes=6 / b_pyramid=2 / b_adapt=2 / b_bias=0 / direct=3 / weightb=1 / open_gop=0 / weightp=2 / keyint=240 / keyint_min=23 / scenecut=40 / intra_refresh=0 / rc=2pass / mbtree=0 / bitrate=3197 / ratetol=1.0 / qcomp=0.60 / qpmin=0 / qpmax=69 / qpstep=4 / cplxblur=20.0 / qblur=0.5 / ip_ratio=1.40 / pb_ratio=1.30 / aq=1:1.00
Language : English
Default : Yes
Forced : No

Audio #1
ID : 2
Format : AC-3
Format/Info : Audio Coding 3
Codec ID : A_AC3
Duration : 1 h 37 min
Bit rate mode : Constant
Bit rate : 192 kb/s
Channel(s) : 2 channels
Channel positions : Front: L R
Sampling rate : 48.0 kHz
Frame rate : 31.250 FPS (1536 SPF)
Bit depth : 16 bits
Compression mode : Lossy
Stream size : 134 MiB (5%)
Title : MVO (Україна) ( 2.0 192 kbps)
Language : Ukrainian
Service kind : Complete Main
Default : Yes
Forced : Yes

Audio #2
ID : 3
Format : AC-3
Format/Info : Audio Coding 3
Codec ID : A_AC3
Duration : 1 h 37 min
Bit rate mode : Constant
Bit rate : 384 kb/s
Channel(s) : 6 channels
Channel positions : Front: L C R, Side: L R, LFE
Sampling rate : 48.0 kHz
Frame rate : 31.250 FPS (1536 SPF)
Bit depth : 16 bits
Compression mode : Lossy
Stream size : 269 MiB (10%)
Title : 5.1 @ 384 kbps
Language : English
Service kind : Complete Main
Default : No
Forced : No

Text
ID : 4
Format : UTF-8
Codec ID : S_TEXT/UTF8
Codec ID/Info : UTF-8 Plain Text
Duration : 1 h 32 min
Bit rate : 56 b/s
Count of elements : 1006
Stream size : 37.9 KiB (0%)
Language : English
Default : No
Forced : No

Menu
00:00:00.000 : en: 1. Start
00:05:57.201 : en: 2. Thirteen
00:08:22.135 : en: 3. Birthday Party
00:12:30.502 : en: 4. Thirty and Flirty and Thriving
00:16:40.535 : en: 5. Sweet Bottom
00:19:33.702 : en: 6. Big Time Magazine Editor
00:22:41.835 : en: 7. "Please Don't Fire Me."
00:25:33.868 : en: 8. Matt
00:29:05.702 : en: 9. Everything She Ever Wanted
00:32:57.002 : en:10. Becky
00:33:53.502 : en:11. After 11 on a School Night
00:37:47.836 : en:12. Saving the Party
00:41:25.136 : en:13. Culture Clash
00:46:39.837 : en:14. Boys Are So Stupid
00:48:49.371 : en:15. Dismal Numbers
00:52:06.504 : en:16. "What Happened to Us?"
00:56:21.671 : en:17. Place of Healing
01:00:44.038 : en:18. Favors
01:03:11.171 : en:19. Class of 2004
01:05:56.172 : en:20. Delayed Romance
01:08:52.706 : en:21. Slumber Party
01:10:31.839 : en:22. Out of the Loop
01:12:53.540 : en:23. Fasion Suicide
01:13:53.174 : en:24. "Who Are These Women?"
01:16:41.174 : en:25. Checkmate
01:20:30.042 : en:26. The Sky Falls
01:24:08.542 : en:27. Her Best Friend
01:31:08.510 : en:28. Course Correction
01:33:30.110 : en:29. End Credits
Скріншоти




Запис з ТБ: drakon87, РОМРЕО
Синхронізація: Vasua95
Джерело: &
Особиста оцінка: 0 - не дивився


Срібний реліз (на рейтинг впливає 50% завантаженого)
 Трекер:    Зареєстрований   

Завантажити / скачати фільм українською



відео для новачків



 Зареєстрований:   2018-06-07 20:58
 Розмір:   2.58 GB 
 Оцінка фільму:   8.3/10 (Голосів: 13)
   
Інші релізи
   Із 13 в 30 / 13 Going on 30 (2004) 1080р Ukr/Eng | Sub Eng staf777  2 / 0   11.16 GB   2017-02-03 16:19 
   Із 13 в 30 / 13 Going on 30 (2004) 720р Ukr/Eng | Sub Eng kino.  2 / 0   3.93 GB   2014-07-02 17:26 
   Із 13 в 30 / 13 Going on 30 (2004) AngryBirdsUA  4 / 0   1.45 GB   2014-06-24 21:59 
Ваш часовий пояс: GMT + 2 Години

Нова тема   Відповісти