Едді "Орел" / Eddie the Eagle (2016) AVC Ukr/Eng | Sub Ukr/Eng

Нові коментарі

Нова тема   Відповісти
Автор Повідомлення
staf777 
Відео Гуртом - підтримка та поширення
Відео Гуртом - підтримка та поширення


З нами з: 16.11.16
Востаннє: 18.07.19
Повідомлень: 2667

2018-06-07 17:42  
Едді "Орел" / Eddie the Eagle (2016) AVC Ukr/Eng | Sub Ukr/Eng

Едді "Орел" / Eddie the Eagle (2016) AVC Ukr/Eng | Sub Ukr/Eng
Оригінальний постер

Едді "Орел" / Eddie the Eagle (2016) AVC Ukr/Eng | Sub Ukr/Eng
Жанр: біографічний, комедія, драма
Країна: Велика Британія, США, Німеччина



Кінокомпанія: Marv Films, Saville Productions, Studio Babelsberg
Режисер: Декстер Флетчер / Dexter Fletcher
Актори: Терон Еджертон / Taron Egerton, Г’ю Джекмен / Hugh Jackman, Крістофер Вокен / Christopher Walken, Джо Гартлі / Jo Hartley, Том Костелло / Tom Costello, Кіт Аллен / Keith Allen, Дікон Толсон / Dickon Tolson, Джек Костелло / Jack Costello та інші
Сюжет:
Фільм розповідає про трамплініста Едді, на прізвисько «Орел». Він прославився завдяки своїм невдачам, бо на всіх змаганнях він займав останні місця...


Рейтинг MPAA: PG-13 - дітям до 13 років перегляд не бажаний
Вікова категорія: 12+

Тривалість: 01:45:43
Якість: AVC
Відео:
кодек:
розмір кадру: 1084x454
бітрейт: 2056 Кбіт/с

Аудіо # 1:
мова: українська
переклад: професійний дубльований | Postmodern
кодек: 5.1
бітрейт: 448 Кбіт/с
Інформація про дубляж
Переклад: Олег Колесніков
Режисер дубляжу: Людмила Петриченко
Менеджер проекту: Ірина Туловська
Звукорежисери: Антон Семикопенко і Геннадій Алексєєв
Ролі дублювали: Едді Едвардс – Андрій Федінчик, Едді малий – Костянтин Чернокрилюк, Бронсон Пірі – Андрій Твердак, Дастін Тарґет – Михайло Войчук, Дженет Едвардс – Інна Капінос, Террі Едвардс – Євген Пашин, Петра – Наталя Задніпровська-Плахотнюк, Ворен Шарп – Юрій Висоцький, Нюканен – Павло Скороходько, Бйорн – Михайло Кришталь, Зак – Дмитро Терещукк, Ведучий США / Кравець / Лікар – Володимир Терещук, Річмонд – Юрій Гребельник, Ерік – Дмитро Сова, Диктор – Андрій Мостренко, Керрі – Олена Узлюк, Коментатор – Владислав Пупков; а також: Аліса Балан, Катерина Башкіна-Зленко, Оксана Поліщук, Дмитро Тварковський, В'ячеслав Дудко, Андрій Соболєв, Сергій Солопай та інші.
Фільм дубльовано компанією Postmodern, зміксовано студією Deluxe Media.

Аудіо # 2:
мова: англійська
переклад: оригінал
кодек: 5.1
бітрейт: 448 Кбіт/с

Субтитри # 1-2: (форсовані, повні)
мова: українська
тип: програмні (м'які)
формат: *.srt

Субтитри # 3-4: (SDH, повні)
мова: англійська
тип: програмні (м'які)
формат: *.srt
Скріншоти



Info
Код:
General
Unique ID                   : 250162940628038815785032803083581421248 (0xBC33A13CBECFD765AF508AD51F6C76C0)
Complete name               : H:\Майбутні релізи\Eddie the Eagle (2016) AVC [Ukr,Eng sub.Ukr,Eng][Hurtom].
Format                      :
Format version              : Version 4 / Version 2
File size                   : 2.18 GiB
Duration                    : 1 h 45 min
Overall bit rate            : 2 954 kb/s
Movie name                  : Eddie the Eagle (2016) AVC [Ukr,Eng sub.Ukr,Eng][Hurtom]
Encoded date                : UTC 2018-06-07 13:37:15
Writing application         : v9.8.0 ('Kuglblids') 64bit
Writing library             : libebml v1.3.4 + v1.4.5
Cover                       : Yes
Attachments                 : cover.png

Video
ID                          : 1
Format                      : AVC
Format/Info                 : Advanced Video Codec
Format profile              : [email protected]
Format settings             : CABAC / 10 Ref Frames
Format settings, CABAC      : Yes
Format settings, ReFrames   : 10 frames
Codec ID                    : V_MPEG4/ISO/AVC
Duration                    : 1 h 45 min
Bit rate                    : 2 056 kb/s
Width                       : 1 084 pixels
Height                      : 454 pixels
Display aspect ratio        : 2.35:1
Original display aspect rat : 2.35:1
Frame rate mode             : Constant
Frame rate                  : 23.976 (24000/1001) FPS
Color space                 : YUV
Chroma subsampling          : 4:2:0
Bit depth                   : 8 bits
Scan type                   : Progressive
Bits/(Pixel*Frame)          : 0.174
Stream size                 : 1.52 GiB (70%)
Title                       : potroks
Writing library             : core 148 r2694M 3b70645
Encoding settings           : cabac=1 / ref=10 / deblock=1:-2:-2 / analyse=0x3:0x133 / me=umh / subme=11 / psy=1 / psy_rd=1.00:0.10 / mixed_ref=1 / me_range=48 / chroma_me=1 / trellis=2 / 8x8dct=1 / cqm=0 / deadzone=21,11 / fast_pskip=0 / chroma_qp_offset=-3 / threads=9 / lookahead_threads=2 / sliced_threads=0 / nr=0 / decimate=0 / interlaced=0 / bluray_compat=0 / constrained_intra=0 / bframes=11 / b_pyramid=2 / b_adapt=2 / b_bias=0 / direct=3 / weightb=1 / open_gop=0 / weightp=2 / keyint=240 / keyint_min=23 / scenecut=40 / intra_refresh=0 / rc_lookahead=100 / rc=2pass / mbtree=0 / bitrate=2056 / ratetol=1.0 / qcomp=0.70 / qpmin=0 / qpmax=69 / qpstep=4 / cplxblur=20.0 / qblur=0.5 / vbv_maxrate=50000 / vbv_bufsize=60000 / nal_hrd=none / filler=0 / ip_ratio=1.40 / pb_ratio=1.30 / aq=1:0.80
Language                    : English
Default                     : Yes
Forced                      : No

Audio #1
ID                          : 2
Format                      : AC-3
Format/Info                 : Audio Coding 3
Codec ID                    : A_AC3
Duration                    : 1 h 45 min
Bit rate mode               : Constant
Bit rate                    : 448 kb/s
Channel(s)                  : 6 channels
Channel positions           : Front: L C R, Side: L R, LFE
Sampling rate               : 48.0 kHz
Frame rate                  : 31.250 FPS (1536 SPF)
Bit depth                   : 16 bits
Compression mode            : Lossy
Stream size                 : 339 MiB (15%)
Title                       : [UA-DUB-| Postmodern]
Language                    : Ukrainian
Service kind                : Complete Main
Default                     : Yes
Forced                      : Yes

Audio #2
ID                          : 3
Format                      : AC-3
Format/Info                 : Audio Coding 3
Codec ID                    : A_AC3
Duration                    : 1 h 45 min
Bit rate mode               : Constant
Bit rate                    : 448 kb/s
Channel(s)                  : 6 channels
Channel positions           : Front: L C R, Side: L R, LFE
Sampling rate               : 48.0 kHz
Frame rate                  : 31.250 FPS (1536 SPF)
Bit depth                   : 16 bits
Compression mode            : Lossy
Stream size                 : 339 MiB (15%)
Title                       : Original | DD 5.1 @ 448 kbps
Language                    : English
Service kind                : Complete Main
Default                     : No
Forced                      : No

Text #1
ID                          : 4
Format                      : UTF-8
Codec ID                    : S_TEXT/UTF8
Codec ID/Info               : UTF-8 Plain Text
Duration                    : 1 h 44 min
Bit rate                    : 1 b/s
Count of elements           : 21
Stream size                 : 1.06 KiB (0%)
Title                       : Forced
Language                    : Ukrainian
Default                     : Yes
Forced                      : Yes

Text #2
ID                          : 5
Format                      : UTF-8
Codec ID                    : S_TEXT/UTF8
Codec ID/Info               : UTF-8 Plain Text
Duration                    : 1 h 44 min
Bit rate                    : 76 b/s
Count of elements           : 1078
Stream size                 : 58.7 KiB (0%)
Title                       : iTunes
Language                    : Ukrainian
Default                     : No
Forced                      : No

Text #3
ID                          : 6
Format                      : UTF-8
Codec ID                    : S_TEXT/UTF8
Codec ID/Info               : UTF-8 Plain Text
Duration                    : 29 min 18 s
Bit rate                    : 0 b/s
Count of elements           : 4
Stream size                 : 104 Bytes (0%)
Title                       : Forced
Language                    : English
Default                     : No
Forced                      : No

Text #4
ID                          : 7
Format                      : UTF-8
Codec ID                    : S_TEXT/UTF8
Codec ID/Info               : UTF-8 Plain Text
Duration                    : 1 h 44 min
Bit rate                    : 60 b/s
Count of elements           : 1501
Stream size                 : 46.0 KiB (0%)
Title                       : Full
Language                    : English
Default                     : No
Forced                      : No

Text #5
ID                          : 8
Format                      : UTF-8
Codec ID                    : S_TEXT/UTF8
Codec ID/Info               : UTF-8 Plain Text
Duration                    : 1 h 44 min
Bit rate                    : 64 b/s
Count of elements           : 1639
Stream size                 : 49.3 KiB (0%)
Title                       : SDH
Language                    : English
Default                     : No
Forced                      : No

Menu
00:00:00.000                : :(01)00:00:00:000
00:03:33.170                : :(02)00:03:33:170
00:08:15.161                : :(03)00:08:15:161
00:12:06.683                : :(04)00:12:06:683
00:17:54.573                : :(05)00:17:54:573
00:21:31.080                : :(06)00:21:31:080
00:26:19.576                : :(07)00:26:19:576
00:31:41.566                : :(08)00:31:41:566
00:37:13.271                : :(09)00:37:13:271
00:41:46.960                : :(10)00:41:46:960
00:47:12.329                : :(11)00:47:12:329
00:50:19.349                : :(12)00:50:19:349
00:53:39.590                : :(13)00:53:39:590
00:56:57.579                : :(14)00:56:57:579
01:02:22.905                : :(15)01:02:22:905
01:08:16.884                : :(16)01:08:16:884
01:11:42.296                : :(17)01:11:42:296
01:17:05.787                : :(18)01:17:05:787
01:20:00.587                : :(19)01:20:00:587
01:23:23.456                : :(20)01:23:23:456
01:27:44.591                : :(21)01:27:44:591
01:31:40.118                : :(22)01:31:40:118
01:36:53.055                : :(23)01:36:53:055
01:40:42.077                : :(24)01:40:42:077
Джерело: &

ЗАЛИШАЙТЕСЬ ЯКОМОГА ДОВШЕ НА РОЗДАЧІ!
СКАЧАВ САМ - ДАЙ СКАЧАТИ ІНШИМ


 Трекер:    Зареєстрований   

Завантажити / скачати фільм українською



відео для новачків



 Зареєстрований:   2018-06-07 18:06
 Розмір:   2.18 GB 
 Оцінка фільму:   9.1/10 (Голосів: 20)
   
Інші релізи
   Едді "Орел" / Eddie the Eagle (2016) Remux 1080p Ukr/Eng | Sub Ukr/Eng staf777  2 / 0   26.3 GB   2017-02-05 15:05 
   Едді "Орел" / Eddie the Eagle (2016) 1080p Ukr/Eng | Sub Ukr/Eng igor911  2 / 0   10.32 GB   2016-08-21 20:31 
   Едді "Орел" / Eddie the Eagle (2016) 720p Ukr/Eng | Sub Ukr/Eng igor911  4 / 0   5.25 GB   2016-08-21 19:09 
   Едді "Орел" / Eddie the Eagle (2016) Gelios  18 / 0   1.45 GB   2016-08-18 15:32 
   Едді "Орел" / Eddie the Eagle (2016) Ukr/Eng | Sub Ukr/Eng Загора  1 / 1   1.91 GB   2016-06-09 18:13 
mur4v3y 
Частий відвідувач


З нами з: 31.10.15
Востаннє: 18.07.19
Повідомлень: 49

2018-06-07 17:59  
Він прославився не завдяки своїм невдачам, а завдяки тому що попри них зміг виступити на Олімпійських іграх, тому що був на свій час чи не єдиним спортсменом Британії у обраній дисципліні Happy)

Приблизно те саме зробила на останніх іграх (цього року в Південній Кореї) інша "спортсменка" - вона протягом сезону брала участь у змаганнях, де було не більше 28 учасників. Щоб кваліфікуватись на Ігри, потрібно постійно потрапляти в тридцятку Happy

bot 
робот


З нами з: 30.09.07
Востаннє: 26.05.05
Повідомлень: 21628

2018-06-07 18:06  
Тему перенесено з Анонси релізів до форуму Фільми


staf777

linevich 
Новенький


З нами з: 18.06.15
Востаннє: 19.05.19
Повідомлень: 6

2018-06-08 16:04  
Особиста оцінка: 6/10 доволі передбачуваний сюжет, акторська гра теж не зачепила нічим. Один раз подивитись можна.
Keelut 
Частий відвідувач


З нами з: 06.12.15
Востаннє: 07.07.19
Повідомлень: 28

2018-06-11 01:47  
Веселий фільм.
Ваш часовий пояс: GMT + 2 Години

Нова тема   Відповісти