Марлі та я / Marley & Me (2008) AVC Ukr/Eng | Sub Ukr/Eng

Нові коментарі

Нова тема   Відповісти
Автор Повідомлення
staf777 
Відео Гуртом - підтримка та поширення
Відео Гуртом - підтримка та поширення


З нами з: 16.11.16
Востаннє: 20.04.19
Повідомлень: 2267

2018-06-06 19:12  
Марлі та я / Marley & Me (2008) AVC Ukr/Eng | Sub Ukr/Eng

Марлі та я / Marley & Me (2008) AVC Ukr/Eng | Sub Ukr/Eng


Жанр: комедія, мелодрама, сімейний, романтичний
Країна: США



Кінокомпанія: 20th Century Fox
Режисер: Девід Франкель
Актори: Оуен Вілсон, Дженіфер Аністон, Ерік Дейн, Кетлін Тернер, Алан Аркін

Сюжет:
Джон і Джен вирішують завести справжню сім'ю: будинок і звичайно діти, в перспективі. Але діти, це така відповідальність! Навіщо ускладнювати власне життя, коли можна спочатку спробувати на собаці, адже вона майже як дитина…


Тривалість: 01:55:33
Якість: AVC
Відео:
кодек:
розмір кадру: 1024 x 436
бітрейт: 3013 кб/с

Аудіо # 1:
мова: українська
переклад: професійний дубльований
кодек: 5.1
бітрейт: 448 кб/с

Аудіо # 2:
мова: англійська
переклад: оригінал
кодек: 5.1
бітрейт: 448 кб/с

Субтитри:
мова: українська
тип: програмні (м'які)
формат: *.srt

Субтитри:
мова: англійська
тип: програмні (м'які)
формат: *.srt
Info
General
Unique ID : 201267238163435284006717262392846277228 (0x976AA8FB05E681CA83DC2F6749315A6C)
Complete name : H:\» Українське озвучення » Фільми\Комедія\Marley And Me (2009) AVC [Ukr,Eng sub.Ukr,Eng][Hurtom].
Format :
Format version : Version 4 / Version 2
File size : 3.16 GiB
Duration : 1 h 55 min
Overall bit rate : 3 911 kb/s
Movie name : Marley And Me (2008) AVC [Ukr,Eng sub.Ukr,Eng][Hurtom]
Encoded date : UTC 2018-06-11 14:59:21
Writing application : v9.8.0 ('Kuglblids') 64bit
Writing library : libebml v1.3.4 + v1.4.5
Cover : Yes
Attachments : cover.jpg

Video
ID : 1
Format : AVC
Format/Info : Advanced Video Codec
Format profile : [email protected]
Format settings : CABAC / 8 Ref Frames
Format settings, CABAC : Yes
Format settings, ReFrames : 8 frames
Codec ID : V_MPEG4/ISO/AVC
Duration : 1 h 55 min
Bit rate : 3 013 kb/s
Width : 1 024 pixels
Height : 436 pixels
Display aspect ratio : 2.35:1
Frame rate mode : Constant
Frame rate : 23.976 (24000/1001) FPS
Color space : YUV
Chroma subsampling : 4:2:0
Bit depth : 8 bits
Scan type : Progressive
Bits/(Pixel*Frame) : 0.281
Stream size : 2.43 GiB (77%)
Title : Rip by Enigma
Writing library : core 125 r2208 d9d2288
Encoding settings : cabac=1 / ref=8 / deblock=1:-2:-2 / analyse=0x3:0x133 / me=umh / subme=11 / psy=1 / psy_rd=1.00:0.00 / mixed_ref=1 / me_range=48 / chroma_me=1 / trellis=2 / 8x8dct=1 / cqm=0 / deadzone=21,11 / fast_pskip=0 / chroma_qp_offset=-2 / threads=3 / lookahead_threads=1 / sliced_threads=0 / nr=0 / decimate=0 / interlaced=0 / bluray_compat=0 / constrained_intra=0 / bframes=8 / b_pyramid=2 / b_adapt=2 / b_bias=0 / direct=3 / weightb=1 / open_gop=0 / weightp=2 / keyint=240 / keyint_min=23 / scenecut=40 / intra_refresh=0 / rc=2pass / mbtree=0 / bitrate=3013 / ratetol=1.0 / qcomp=0.60 / qpmin=10 / qpmax=51 / qpstep=4 / cplxblur=20.0 / qblur=0.5 / ip_ratio=1.40 / pb_ratio=1.30 / aq=1:1.00
Language : English
Default : No
Forced : No

Audio #1
ID : 2
Format : AC-3
Format/Info : Audio Coding 3
Codec ID : A_AC3
Duration : 1 h 55 min
Bit rate mode : Constant
Bit rate : 448 kb/s
Channel(s) : 6 channels
Channel positions : Front: L C R, Side: L R, LFE
Sampling rate : 48.0 kHz
Frame rate : 31.250 FPS (1536 SPF)
Bit depth : 16 bits
Compression mode : Lossy
Stream size : 370 MiB (11%)
Title : [UA-DUB]
Language : Ukrainian
Service kind : Complete Main
Default : Yes
Forced : Yes

Audio #2
ID : 3
Format : AC-3
Format/Info : Audio Coding 3
Codec ID : A_AC3
Duration : 1 h 55 min
Bit rate mode : Constant
Bit rate : 448 kb/s
Channel(s) : 6 channels
Channel positions : Front: L C R, Side: L R, LFE
Sampling rate : 48.0 kHz
Frame rate : 31.250 FPS (1536 SPF)
Bit depth : 16 bits
Compression mode : Lossy
Stream size : 370 MiB (11%)
Language : English
Service kind : Complete Main
Default : No
Forced : No

Text #1
ID : 4
Format : UTF-8
Codec ID : S_TEXT/UTF8
Codec ID/Info : UTF-8 Plain Text
Duration : 1 h 51 min
Bit rate : 128 b/s
Count of elements : 1628
Stream size : 104 KiB (0%)
Language : Ukrainian
Default : No
Forced : No

Text #2
ID : 5
Format : UTF-8
Codec ID : S_TEXT/UTF8
Codec ID/Info : UTF-8 Plain Text
Duration : 1 h 51 min
Bit rate : 89 b/s
Count of elements : 1788
Stream size : 73.0 KiB (0%)
Language : English
Default : No
Forced : No

Menu
00:00:00.000 : :00:00:00.000
00:03:49.729 : :00:03:49.729
00:06:25.802 : :00:06:25.802
00:10:12.737 : :00:10:12.737
00:12:03.598 : :00:12:03.598
00:15:56.247 : :00:15:56.247
00:17:46.565 : :00:17:46.565
00:20:49.165 : :00:20:49.165
00:22:48.200 : :00:22:48.200
00:26:09.109 : :00:26:09.109
00:27:51.628 : :00:27:51.628
00:32:16.017 : :00:32:16.017
00:38:29.140 : :00:38:29.140
00:40:13.995 : :00:40:13.995
00:44:12.984 : :00:44:12.984
00:46:35.126 : :00:46:35.126
00:50:00.706 : :00:50:00.706
00:54:45.324 : :00:54:45.324
00:57:08.967 : :00:57:08.967
01:00:57.487 : :01:00:57.487
01:06:18.099 : :01:06:18.099
01:10:12.500 : :01:10:12.500
01:10:13.793 : :01:10:13.793
01:12:26.092 : :01:12:26.092
01:12:27.385 : :01:12:27.385
01:15:23.310 : :01:15:23.310
01:15:24.603 : :01:15:24.603
01:18:09.727 : :01:18:09.727
01:18:11.020 : :01:18:11.020
01:21:53.909 : :01:21:53.909
01:21:55.202 : :01:21:55.202
01:27:39.087 : :01:27:39.087
01:27:40.380 : :01:27:40.380
01:37:44.192 : :01:37:44.192
01:37:45.485 : :01:37:45.485
01:40:14.508 : :01:40:14.508
01:40:15.801 : :01:40:15.801
01:44:09.702 : :01:44:09.702
01:44:10.995 : :01:44:10.995
01:48:34.049 : :01:48:34.049
01:48:35.342 : :01:48:35.342
01:52:14.353 : :01:52:14.353
01:52:15.354 : :01:52:15.354
Скріншоти




Джерело: &
Особиста оцінка: 8 - мені сподобалося
Марлі та я / Marley & Me (2008) AVC Ukr/Eng | Sub Ukr/Eng


 Трекер:    Зареєстрований   

Завантажити / скачати фільм українською



відео для новачків



 Зареєстрований:   2018-06-11 18:39
 Розмір:   3.16 GB 
 Оцінка фільму:   8.9/10 (Голосів: 18)
   
Інші релізи
   Марлі та я / Marley & Me (2008) 1080p H.265 Ukr/Eng | Sub Ukr/Eng -Star-Lord-  2 / 0   4.76 GB   2019-02-04 12:41 
   Марлі та я / Marley & Me (2008) 1080p Ukr/Eng | Sub Ukr/Eng staf777  1 / 0   13.37 GB   2017-01-07 23:33 
   Марлі та я / Marley & Me (2008) patriot2305  4 / 0   1.45 GB   2014-11-20 22:47 
   Марлі та я / Marley & Me (2008) 720p Ukr/Eng | Sub Multilanguage DiGen  1 / 0   6.6 GB   2010-04-08 14:06 
   Марлі та Я / Marley & Me (2008) Ukr/Eng | Sub Ukr/Eng DemsOFF  5 / 0   2.18 GB   2010-03-09 20:05 
bot 
робот


З нами з: 30.09.07
Востаннє: 26.05.05
Повідомлень: 21217

2018-06-06 20:41  
Тему перенесено з Анонси релізів до форуму Фільми


staf777

11FrYkT 
Модератор відео


З нами з: 20.02.11
Востаннє: 19.04.19
Повідомлень: 5794

2018-06-08 13:56  
staf777 написано:
subme=2 / psy_rd=0.0:0.0 / mixed_ref=0 / me_range=16 /

бажано замінити на краще відео

staf777 
Відео Гуртом - підтримка та поширення
Відео Гуртом - підтримка та поширення


З нами з: 16.11.16
Востаннє: 20.04.19
Повідомлень: 2267

2018-06-09 09:50  
11FrYkT написано:
Marley & Me (2008)

Не можу знайти облазив багато трекерів всюди тільки цей ріп

11FrYkT 
Модератор відео


З нами з: 20.02.11
Востаннє: 19.04.19
Повідомлень: 5794

2018-06-11 09:26  
staf777 написано:
Не можу знайти облазив багато трекерів всюди тільки цей ріп

на першому же трекері є нормальний ріп

staf777 
Відео Гуртом - підтримка та поширення
Відео Гуртом - підтримка та поширення


З нами з: 16.11.16
Востаннє: 20.04.19
Повідомлень: 2267

2018-06-11 18:41  
Оновив на кращій відеоряд 
Ваш часовий пояс: GMT + 2 Години

Нова тема   Відповісти