Явище / The Happening (2008) AVC 2xUkr/Eng | Sub Ukr/Eng

Нові коментарі

Нова тема   Відповісти
Автор Повідомлення
staf777 
Відео Гуртом - підтримка та поширення
Відео Гуртом - підтримка та поширення


З нами з: 16.11.16
Востаннє: 15.09.19
Повідомлень: 2860

2018-06-06 10:47  
Явище / The Happening (2008) AVC 2xUkr/Eng | Sub Ukr/Eng

Явище / The Happening (2008) AVC 2xUkr/Eng | Sub Ukr/Eng

Жанр: фантастика, трилер
Країна: США, Індія, Франція



Кінокомпанія: Twentieth Century Fox Film Corporation, UTV Motion Pictures, Spyglass Entertainment, Blinding Edge Pictures, Dune Entertainment
Режисер: М. Найт Ш'ямалан / M. Night Shyamalan
Актори: Марк Волберґ / Mark Wahlberg, Зуї Дешанель / Zooey Deschanel, Джон Леґуізамо / John Leguizamo, Ешлiн Санчез / Ashlyn Sanchez, Беттi Бакклi / Betty Buckley, Спенсер Бреслiн / Spencer Breslin, Роберт Бейлi мол. / Robert Bailey Jr., Френк Колiсон / Frank Collison та інші

Сюжет:
Історія про сім'ю, яка намагається втекти від загрози, що загрожує всьому людству. Біда приходить з нізвідки, наздоганяє раптово, змушуючи людей масово здійснювати самогубства. Страшна напасть, епідемія або нова хвороба? Що це? Ніхто не знає ...

Рейтинг MPAA: R - особам до 17 років обов'язкова присутність батьків або дорослого опікуна
Вікова категорія: 16+

Тривалість: 01:30:23
Якість: AVC
Відео:
кодек:
розмір кадру: 1024х554
бітрейт: 3300 кб/с

Аудіо # 1:
мова: українська
переклад: професійний дубльований | Невафільм Україна
кодек: 5.1
бітрейт: 448 кб/с
примітка: з цим же дубляжем транслювався по Новому каналу
Інформація про дубляж
Фільм дубльований студією Невафільм Україна на замовлення кінокомпанії 20 століття Фокс та компанії Геміні
Переклад: Федір Сидорук
Режисер дубляжу: Ольга Фокіна
Асистент режисера: Анна Пащенко
Звукорежисер: Олексій Загарін
Координатор проету: Лариса Шаталова
Ролі дублювали: Марк Волберґ/Елліот Мур - Дмитро Завадський, Зої Дешанель/Альма - Наталя Романько-Кисельова, Джон Леґузіамо/Джуліан - Юрій Ребрик, Беті Баклі/М-с Джонс - Ніна Касторф, Ешлін Санчез/Джесс - Ліза Прима, Роберт Бейлі мол./Джаред - Олексій Коваленко, Довгий - Валерій Легін, Джеремі Стронґ/Остер - Станіслав Щокін, Спенсер Бреслін/Джош - Максим Запісочний; Директор, Ведучий - Євген Пашин, Мати - Катерина Коновалова, Господар - Микола Карцев, Дружина - Людмила Ардельян, Едвард Джеймс Гайленд/Професор Воллас - Юрій Мисєнков, написи - Микола Боклан?, Дередж Гардінґ/Кондуктор - актор, який озвучує в еквілібріум від нового каналу та інші.
Аудіо # 2:
мова: українська
переклад: багатоголосий закадровий
кодек: 2.0
бітрейт: 192 кб/с

Аудіо # 3:
мова: англійська
переклад: оригінал
кодек: 5.1
бітрейт: 448 кб/с

Субтитри # 1-2:
мова: українська (форсовані, повні)
тип: програмні (м'які)
формат: *.srt

Субтитри# 3:
мова: англійська
тип: програмні (м'які)
формат: *.srt
Info
Код:
General
Unique ID                   : 209870847245542171543985830131437578753 (0x9DE3A7A89A1679729C20FCFE7132AA01)
Complete name               : H:\Майбутні релізи\The Happening (2008) AVC [2xUKR_ENG] [Hurtom].
Format                      :
Format version              : Version 4 / Version 2
File size                   : 2.77 GiB
Duration                    : 1 h 30 min
Overall bit rate            : 4 391 kb/s
Movie name                  : The Happening (2008) AVC [2xUKR_ENG] [Hurtom]
Encoded date                : UTC 2018-06-06 07:38:17
Writing application         : v9.8.0 ('Kuglblids') 64bit
Writing library             : libebml v1.3.4 + v1.4.5
Cover                       : Yes
Attachments                 : cover.jpg..jpg

Video
ID                          : 1
Format                      : AVC
Format/Info                 : Advanced Video Codec
Format profile              : [email protected]
Format settings             : CABAC / 9 Ref Frames
Format settings, CABAC      : Yes
Format settings, ReFrames   : 9 frames
Codec ID                    : V_MPEG4/ISO/AVC
Duration                    : 1 h 30 min
Bit rate                    : 3 300 kb/s
Width                       : 1 024 pixels
Height                      : 554 pixels
Display aspect ratio        : 1.85:1
Frame rate mode             : Constant
Frame rate                  : 23.976 FPS
Color space                 : YUV
Chroma subsampling          : 4:2:0
Bit depth                   : 8 bits
Scan type                   : Progressive
Bits/(Pixel*Frame)          : 0.243
Stream size                 : 2.08 GiB (75%)
Title                       : Javlenie.2008...AVC.MediaClub
Writing library             : core 130 r2273 b3065e6
Encoding settings           : cabac=1 / ref=9 / deblock=1:-3:-3 / analyse=0x3:0x133 / me=umh / subme=11 / psy=1 / psy_rd=1.00:0.25 / mixed_ref=1 / me_range=32 / chroma_me=1 / trellis=2 / 8x8dct=1 / cqm=0 / deadzone=21,11 / fast_pskip=0 / chroma_qp_offset=-4 / threads=6 / lookahead_threads=1 / sliced_threads=0 / nr=0 / decimate=0 / interlaced=0 / bluray_compat=0 / constrained_intra=0 / bframes=8 / b_pyramid=2 / b_adapt=2 / b_bias=0 / direct=3 / weightb=1 / open_gop=0 / weightp=2 / keyint=240 / keyint_min=23 / scenecut=40 / intra_refresh=0 / rc=2pass / mbtree=0 / bitrate=3300 / ratetol=1.0 / qcomp=0.60 / qpmin=0 / qpmax=69 / qpstep=4 / cplxblur=20.0 / qblur=0.5 / ip_ratio=1.40 / pb_ratio=1.30 / aq=1:1.00
Language                    : English
Default                     : Yes
Forced                      : Yes

Audio #1
ID                          : 2
Format                      : AC-3
Format/Info                 : Audio Coding 3
Codec ID                    : A_AC3
Duration                    : 1 h 30 min
Bit rate mode               : Constant
Bit rate                    : 448 kb/s
Channel(s)                  : 6 channels
Channel positions           : Front: L C R, Side: L R, LFE
Sampling rate               : 48.0 kHz
Frame rate                  : 31.250 FPS (1536 SPF)
Bit depth                   : 16 bits
Compression mode            : Lossy
Stream size                 : 290 MiB (10%)
Title                       : [UA-DUB BluRay EUR]
Language                    : Ukrainian
Service kind                : Complete Main
Default                     : Yes
Forced                      : Yes

Audio #2
ID                          : 3
Format                      : AC-3
Format/Info                 : Audio Coding 3
Codec ID                    : A_AC3
Duration                    : 1 h 30 min
Bit rate mode               : Constant
Bit rate                    : 192 kb/s
Channel(s)                  : 2 channels
Channel positions           : Front: L R
Sampling rate               : 48.0 kHz
Frame rate                  : 31.250 FPS (1536 SPF)
Bit depth                   : 16 bits
Compression mode            : Lossy
Stream size                 : 124 MiB (4%)
Title                       : [UA-MVO-1+1]
Language                    : Ukrainian
Service kind                : Complete Main
Default                     : No
Forced                      : No

Audio #3
ID                          : 4
Format                      : AC-3
Format/Info                 : Audio Coding 3
Codec ID                    : A_AC3
Duration                    : 1 h 30 min
Bit rate mode               : Constant
Bit rate                    : 448 kb/s
Channel(s)                  : 6 channels
Channel positions           : Front: L C R, Side: L R, LFE
Sampling rate               : 48.0 kHz
Frame rate                  : 31.250 FPS (1536 SPF)
Bit depth                   : 16 bits
Compression mode            : Lossy
Stream size                 : 290 MiB (10%)
Title                       : TRACK_03_ORIGINAL_ENG
Language                    : English
Service kind                : Complete Main
Default                     : No
Forced                      : No

Text #1
ID                          : 5
Format                      : UTF-8
Codec ID                    : S_TEXT/UTF8
Codec ID/Info               : UTF-8 Plain Text
Duration                    : 1 h 12 min
Bit rate                    : 2 b/s
Count of elements           : 20
Stream size                 : 1.10 KiB (0%)
Title                       : Forced
Language                    : Ukrainian
Default                     : Yes
Forced                      : Yes

Text #2
ID                          : 6
Format                      : UTF-8
Codec ID                    : S_TEXT/UTF8
Codec ID/Info               : UTF-8 Plain Text
Duration                    : 1 h 21 min
Bit rate                    : 97 b/s
Count of elements           : 943
Stream size                 : 58.4 KiB (0%)
Title                       : TEXT_03_SUB_UKR.full.srt.srt
Language                    : Ukrainian
Default                     : No
Forced                      : No

Text #3
ID                          : 7
Format                      : UTF-8
Codec ID                    : S_TEXT/UTF8
Codec ID/Info               : UTF-8 Plain Text
Duration                    : 1 h 21 min
Bit rate                    : 58 b/s
Count of elements           : 920
Stream size                 : 35.0 KiB (0%)
Title                       : TEXT_04_SUB_ENG.full.srt
Language                    : English
Default                     : No
Forced                      : No

Menu
00:00:00.000                : en:00:00:00.000
00:03:18.698                : en:00:03:18.698
00:05:11.686                : en:00:05:11.686
00:06:44.029                : en:00:06:44.029
00:09:01.166                : en:00:09:01.166
00:11:43.036                : en:00:11:43.036
00:17:32.134                : en:00:17:32.134
00:21:17.401                : en:00:21:17.401
00:27:40.117                : en:00:27:40.117
00:34:37.909                : en:00:34:37.909
00:38:23.801                : en:00:38:23.801
00:44:00.054                : en:00:44:00.054
00:49:41.228                : en:00:49:41.228
00:55:14.353                : en:00:55:14.353
01:02:44.636                : en:01:02:44.636
01:08:37.071                : en:01:08:37.071
01:13:24.150                : en:01:13:24.150
01:18:12.730                : en:01:18:12.730
01:20:35.164                : en:01:20:35.164
01:24:25.185                : en:01:24:25.185
Скріншоти




Джерело: &
Особиста оцінка: 0 - не дивився


 Трекер:    Зареєстрований   

Завантажити / скачати фільм українською



відео для новачків



 Зареєстрований:   2018-06-06 20:55
 Розмір:   2.77 GB 
 Оцінка фільму:   8.9/10 (Голосів: 18)
   
Інші релізи
   Явище / The Happening (2008) Remux 1080p 2xUkr/Eng | Sub Ukr/Eng kryk-v.ya.  1 / 0   21.8 GB   2019-07-08 19:18 
   Явище / The Happening (2008) 1080p 2xUkr/Eng | Sub Ukr/Eng staf777  1 / 0   16.11 GB   2016-12-26 17:53 
   Явище / The Happening (2008) 2xUkr/Eng Arsenfpu  4 / 0   2.01 GB   2015-07-31 08:21 
   Явище / The Happening (2008) 720p Ukr/Eng | Sub Ukr/Eng/Multi igor911  3 / 0   8.15 GB   2014-10-19 20:57 
   Явище / The Happening (2008) DVD9 Eng/Cze/Pol/Hun/Rus/Ukr | Ліцензія Beffis  2 / 0   6.85 GB   2012-05-24 13:24 
bot 
робот


З нами з: 30.09.07
Востаннє: 26.05.05
Повідомлень: 22033

2018-06-06 20:55  
Тему перенесено з Анонси релізів до форуму Фільми


staf777

starlost 
VIP


З нами з: 07.08.15
Востаннє: 15.09.19
Повідомлень: 391

2018-06-07 00:09  
кнопки imdb немає, чи то в мене глюк?

Додано через 1 хвилину 7 секунд:

не прискіпуюсь, просто завжди звертаю на неї увагу.. і інколи переходжу по лінку.

deus207 
Частий відвідувач


З нами з: 19.03.10
Востаннє: 16.09.19
Повідомлень: 40

2019-08-21 21:53  
Ш'ямалан - чудовий режисер. В цьому фільмі стиль Карпентера відчувається.
Сюжет тримає в напрузі до кінця. Проковтнув на одному диханні.
Як на мене, оцінка imdb значно занижена. Від мене тут дев'ятка тверда.

White_123 
Поважний учасник


З нами з: 15.02.13
Востаннє: 10.09.19
Повідомлень: 165

2019-08-22 17:40  
Цитата:
Як на мене, оцінка imdb значно занижена.

Так і є, фільм достойний.

Ваш часовий пояс: GMT + 2 Години

Нова тема   Відповісти