Затвір (Фантоми) / Shutter (2008) AVC Ukr/Eng | Sub Ukr/Eng

Нові коментарі

Нова тема   Відповісти
Автор Повідомлення
staf777 
Відео Гуртом - підтримка та поширення
Відео Гуртом - підтримка та поширення


З нами з: 16.11.16
Востаннє: 25.10.20
Повідомлень: 4225

2018-06-05 15:14  
Затвір (Фантоми) / Shutter (2008) AVC Ukr/Eng | Sub Ukr/Eng

Затвір (Фантоми) / Shutter (2008) AVC Ukr/Eng | Sub Ukr/Eng
Оригінальний постер

Затвір (Фантоми) / Shutter (2008) AVC Ukr/Eng | Sub Ukr/Eng
Жанр: трилер, жахи, містика
Країна: США



Кінокомпанія: Ozla Pictures, Regency Enterprises, Vertigo Entertainment
Режисер: Масаюкі Очіай
Актори: Джошуа Джексон, Рейчел Тейлор, Мегумі Окіна, Девід Денман, Джон Хенслі, Майя Хазен, Джеймс Кайсон Лі, Йошико Міязакі, Кєї Ямамото, Дейзі Беттс, Едріенн Пікерінг

Сюжет:
Проявляючи фотографії після нещасного випадку, пара молодят виявляє на них лякаючі примарні фігури. Побоюючись, що все це може бути взаємозв'язане, подружжя намагається з'ясувати природу цих явищ і розуміє, що краще б вони не лізли в ці таємниці.


Тривалість: 01:29:38
Якість: AVC
Відео:
кодек:
розмір кадру: 1024x554
бітрейт: 3500 кб/с

Аудіо # 1:
мова: українська
переклад: двоголосий закадровий
кодек: 5.1
бітрейт: 448 кб/с

Аудіо # 2:
мова: англійська
переклад: оригінал
кодек: 5.1
бітрейт: 448 кб/с

Джерело озвучення:


Субтитри #1-2:
мова: українська (форсовані - на неозвучені місця, повні)
тип: програмні (м'які)
формат: *.srt

Субтитри #3:
мова: англійська
тип: програмні (м'які)
формат: *.srt
Info
General
Unique ID : 237861407204984006280777656638148420443 (0xB2F270D013EFD21B9B8E45835F2FA35B)
Complete name : H:\Майбутні релізи\ Shutter (2008) AVC [UKR_ENG] [Hurtom].
Format :
Format version : Version 4 / Version 2
File size : 2.75 GiB
Duration : 1 h 29 min
Overall bit rate : 4 391 kb/s
Movie name : Shutter (2008) AVC [UKR_ENG] [Hurtom]
Encoded date : UTC 2018-06-05 13:09:59
Writing application : v9.8.0 ('Kuglblids') 64bit
Writing library : libebml v1.3.4 + v1.4.5
Cover : Yes
Attachments : cover.jpg / CronosPro-Bold.ttf / CronosPro-Semibold.ttf / CronosPro-SemiboldIt.ttf

Video
ID : 1
Format : AVC
Format/Info : Advanced Video Codec
Format profile : [email protected]
Format settings : CABAC / 6 Ref Frames
Format settings, CABAC : Yes
Format settings, ReFrames : 6 frames
Codec ID : V_MPEG4/ISO/AVC
Duration : 1 h 29 min
Bit rate : 3 500 kb/s
Width : 1 024 pixels
Height : 554 pixels
Display aspect ratio : 1.85:1
Frame rate mode : Constant
Frame rate : 23.976 (24000/1001) FPS
Color space : YUV
Chroma subsampling : 4:2:0
Bit depth : 8 bits
Scan type : Progressive
Bits/(Pixel*Frame) : 0.257
Stream size : 2.19 GiB (80%)
Title : Fantomy.2008..(AVC).Kinozal.TV-AVC [Release by neni]
Writing library : core 116 r2074 2641b9e
Encoding settings : cabac=1 / ref=6 / deblock=1:-1:-1 / analyse=0x1:0x131 / me=umh / subme=11 / psy=1 / psy_rd=1.00:0.00 / mixed_ref=1 / me_range=32 / chroma_me=1 / trellis=2 / 8x8dct=0 / cqm=0 / deadzone=21,11 / fast_pskip=0 / chroma_qp_offset=-2 / threads=9 / sliced_threads=0 / nr=0 / decimate=1 / interlaced=0 / bluray_compat=0 / constrained_intra=0 / bframes=6 / b_pyramid=2 / b_adapt=2 / b_bias=0 / direct=2 / weightb=1 / open_gop=0 / weightp=2 / keyint=250 / keyint_min=23 / scenecut=40 / intra_refresh=0 / rc=2pass / mbtree=0 / bitrate=3500 / ratetol=1.0 / qcomp=0.60 / qpmin=10 / qpmax=51 / qpstep=4 / cplxblur=20.0 / qblur=0.5 / ip_ratio=1.40 / pb_ratio=1.40 / aq=1:1.00
Default : Yes
Forced : Yes

Audio #1
ID : 2
Format : AC-3
Format/Info : Audio Coding 3
Codec ID : A_AC3
Duration : 1 h 29 min
Bit rate mode : Constant
Bit rate : 448 kb/s
Channel(s) : 6 channels
Channel positions : Front: L C R, Side: L R, LFE
Sampling rate : 48.0 kHz
Frame rate : 31.250 FPS (1536 SPF)
Bit depth : 16 bits
Compression mode : Lossy
Stream size : 287 MiB (10%)
Title : [UA-DVO]
Language : Ukrainian
Service kind : Complete Main
Default : Yes
Forced : Yes

Audio #2
ID : 3
Format : AC-3
Format/Info : Audio Coding 3
Codec ID : A_AC3
Duration : 1 h 29 min
Bit rate mode : Constant
Bit rate : 448 kb/s
Channel(s) : 6 channels
Channel positions : Front: L C R, Side: L R, LFE
Sampling rate : 48.0 kHz
Frame rate : 31.250 FPS (1536 SPF)
Bit depth : 16 bits
Compression mode : Lossy
Stream size : 287 MiB (10%)
Language : English
Service kind : Complete Main
Default : No
Forced : No

Text #1
ID : 4
Format : UTF-8
Codec ID : S_TEXT/UTF8
Codec ID/Info : UTF-8 Plain Text
Duration : 1 h 12 min
Bit rate : 2 b/s
Count of elements : 28
Stream size : 1.39 KiB (0%)
Language : Ukrainian
Default : Yes
Forced : Yes

Text #2
ID : 5
Format : UTF-8
Codec ID : S_TEXT/UTF8
Codec ID/Info : UTF-8 Plain Text
Duration : 1 h 21 min
Bit rate : 50 b/s
Count of elements : 673
Stream size : 30.5 KiB (0%)
Language : Ukrainian
Default : No
Forced : No

Text #3
ID : 6
Format : UTF-8
Codec ID : S_TEXT/UTF8
Codec ID/Info : UTF-8 Plain Text
Duration : 1 h 22 min
Bit rate : 34 b/s
Count of elements : 670
Stream size : 21.1 KiB (0%)
Language : English
Default : No
Forced : No

Menu
00:00:00.000 : :Chapter 01
00:04:03.201 : :Chapter 02
00:06:02.403 : :Chapter 03
00:09:03.960 : :Chapter 04
00:13:08.537 : :Chapter 05
00:16:34.827 : :Chapter 06
00:22:28.013 : :Chapter 07
00:27:24.684 : :Chapter 08
00:28:49.269 : :Chapter 09
00:33:31.009 : :Chapter 10
00:38:39.817 : :Chapter 11
00:42:10.402 : :Chapter 12
00:47:12.037 : :Chapter 13
00:49:10.238 : :Chapter 14
00:52:42.701 : :Chapter 15
00:56:21.127 : :Chapter 16
00:58:14.449 : :Chapter 17
01:03:19.378 : :Chapter 18
01:09:44.388 : :Chapter 19
01:11:21.443 : :Chapter 20
01:17:03.535 : :Chapter 21
01:19:55.290 : :Chapter 22
01:21:18.164 : :Chapter 23
01:24:40.283 : :Chapter 24
01:29:37.413 : :Chapter 25
Скріншоти



Джерело: &

Подяка пану Skiff за укр.доріжку
, український постер - Воїн
Особиста оцінка: 8 - мені сподобалося


 Трекер:    Зареєстрований   

Завантажити / скачати фільм українською



відео для новачків



 Зареєстрований:   2018-06-05 17:23
 Розмір:   2.75 GB 
 Оцінка фільму:   8.7/10 (Голосів: 10)
   
Інші релізи
   Затвір (Фантоми) / Shutter (2008) Remux 1080p Ukr/Eng | Sub Ukr/Eng staf777  2 / 0   23.34 GB   2019-08-30 07:38 
   Затвір (Фантоми) / Shutter (2008) 1080p Ukr/Eng | Sub Ukr/Eng staf777  1 / 0   7.75 GB   2019-08-28 14:49 
   Затвір (Фантоми) / Shutter (2008) 720p Ukr/Eng | Sub Ukr/Eng staf777  1 / 0   4.24 GB   2017-01-17 21:04 
   Затвір (Фантоми) / Shutter (2008) Skiff  1 / 0   1.45 GB   2010-12-26 21:49 
bot 
робот


З нами з: 30.09.07
Востаннє: 26.05.05
Повідомлень: 25923

2018-06-05 17:23  
Тему перенесено з Анонси релізів до форуму Фільми


staf777

пан Струмок 
VIP


З нами з: 19.02.13
Востаннє: 25.10.20
Повідомлень: 288

2018-06-06 19:58  
А що воно за звір, отой "Затвір"?
ProgBassing 
Попереджень: 1
Попереджень: 1 


З нами з: 08.03.08
Востаннє: 25.10.20
Повідомлень: 873

2018-06-08 14:50  
"затвір" - це потужно :ІІ

"засув" то вже зовсім не те...
і це не кажучи про запону чи клямку

Ваш часовий пояс: GMT + 2 Години

Нова тема   Відповісти