Щось / Дещо / The Thing (2011) 1080p 3xUkr/Eng | Sub Eng

Нові коментарі

Нова тема   Відповісти
Автор Повідомлення
staf777 
Відео Гуртом - підтримка та поширення
Відео Гуртом - підтримка та поширення


З нами з: 16.11.16
Востаннє: 29.09.20
Повідомлень: 4073

2018-06-05 15:34  
Щось / Дещо / The Thing (2011) 1080p 3xUkr/Eng | Sub Eng

Щось / Дещо / The Thing (2011) 1080p 3xUkr/Eng | Sub Eng


Жанр: Фантастика, жахи
Країна: США, Канада



Кінокомпанія: Universal Pictures, Morgan Creek Productions, Strike Entertainment
Режисер: Маттіс ван Хайнінґен мол.
Актори: Мері Елізабет Вінстед, Джоел Едґертон, Ульріх Томсен, Адевале Акіннуойе-Аґбадже...

Сюжет:
Наукова експедиція виявляє в Антарктиці потерпілий аварію інопланетний космічний корабель. Група відчайдушних вчених проникає в нього і несподівано для самих себе відкриває ящик Пандори. Серед непрохідних снігів і крижаних гір, випущене на свободу Щось влаштовує на дослідницькій станції страшну бойню.


Тривалість: 01:43:00
Якість: 1080p
Відео:
кодек:
розмір кадру: 1920x800
бітрейт: 9506 кб/с

Аудіо # 1:
мова: українська
переклад: професійний дубльований
кодек: 5.1
бітрейт: 448 кб/с

Аудіо # 2:
мова: українська
переклад: багатоголосий закадровий
кодек: 2.0
бітрейт: 192 кб/с

Аудіо # 3:
мова: українська
переклад: багатоголосий закадровий
кодек: 2.0
бітрейт: 192 кб/с

Аудіо # 4:
мова: англійська
переклад: оригінал
кодек: 5.1
бітрейт: 640 кб/с

Субтитри:
мова: англійська
тип: програмні (м'які)
формат: *.srt
Info
General
Unique ID : 220531173620102494115501653627909057183 (0xA5E8C25405C27A909A832AD4247A2A9F)
Complete name : K:\The Thing (2011) 1080p [3xUKR_ENG] [Hurtom].
Format :
Format version : Version 4 / Version 2
File size : 7.90 GiB
Duration : 1 h 43 min
Overall bit rate : 11.0 Mb/s
Movie name : The Thing (2011) 1080p [3xUKR_ENG] [Hurtom]
Encoded date : UTC 2018-06-05 12:33:24
Writing application : v9.8.0 ('Kuglblids') 64bit
Writing library : libebml v1.3.4 + v1.4.5
Cover : Yes
Attachments : cover.jpg..jpg

Video
ID : 1
Format : AVC
Format/Info : Advanced Video Codec
Format profile : [email protected]
Format settings : CABAC / 5 Ref Frames
Format settings, CABAC : Yes
Format settings, ReFrames : 5 frames
Codec ID : V_MPEG4/ISO/AVC
Duration : 1 h 43 min
Bit rate : 9 506 kb/s
Width : 1 920 pixels
Height : 800 pixels
Display aspect ratio : 2.40:1
Frame rate mode : Constant
Frame rate : 23.976 (24000/1001) FPS
Color space : YUV
Chroma subsampling : 4:2:0
Bit depth : 8 bits
Scan type : Progressive
Bits/(Pixel*Frame) : 0.258
Stream size : 6.84 GiB (87%)
Title : Rip by Boriy
Writing library : core 142 r2479 dd79a61
Encoding settings : cabac=1 / ref=5 / deblock=1:-3:-3 / analyse=0x3:0x113 / me=umh / subme=11 / psy=1 / psy_rd=1.00:0.00 / mixed_ref=1 / me_range=32 / chroma_me=1 / trellis=2 / 8x8dct=1 / cqm=0 / deadzone=21,11 / fast_pskip=0 / chroma_qp_offset=-2 / threads=12 / lookahead_threads=2 / sliced_threads=0 / nr=0 / decimate=0 / interlaced=0 / bluray_compat=0 / constrained_intra=0 / bframes=7 / b_pyramid=2 / b_adapt=2 / b_bias=0 / direct=3 / weightb=1 / open_gop=0 / weightp=2 / keyint=240 / keyint_min=23 / scenecut=40 / intra_refresh=0 / rc=2pass / mbtree=0 / bitrate=9506 / ratetol=1.0 / qcomp=0.60 / qpmin=0 / qpmax=69 / qpstep=4 / cplxblur=20.0 / qblur=0.5 / ip_ratio=1.40 / pb_ratio=1.30 / aq=1:1.00
Language : English
Default : Yes
Forced : No

Audio #1
ID : 2
Format : AC-3
Format/Info : Audio Coding 3
Codec ID : A_AC3
Duration : 1 h 43 min
Bit rate mode : Constant
Bit rate : 448 kb/s
Channel(s) : 6 channels
Channel positions : Front: L C R, Side: L R, LFE
Sampling rate : 48.0 kHz
Frame rate : 31.250 FPS (1536 SPF)
Bit depth : 16 bits
Compression mode : Lossy
Delay relative to video : 42 ms
Stream size : 330 MiB (4%)
Title : [UA-DUB], 3/2 (L,C,R,l,r) + LFE ch, ~448 kbps
Language : Ukrainian
Service kind : Complete Main
Default : Yes
Forced : Yes

Audio #2
ID : 3
Format : AC-3
Format/Info : Audio Coding 3
Codec ID : A_AC3
Duration : 1 h 43 min
Bit rate mode : Constant
Bit rate : 192 kb/s
Channel(s) : 2 channels
Channel positions : Front: L R
Sampling rate : 48.0 kHz
Frame rate : 31.250 FPS (1536 SPF)
Bit depth : 16 bits
Compression mode : Lossy
Delay relative to video : 42 ms
Stream size : 141 MiB (2%)
Title : [UA-MVO-ICTV] , 2/0 (L,R) ch, ~192 kbps
Language : Ukrainian
Service kind : Complete Main
Default : No
Forced : No

Audio #3
ID : 4
Format : AC-3
Format/Info : Audio Coding 3
Codec ID : A_AC3
Duration : 1 h 43 min
Bit rate mode : Constant
Bit rate : 192 kb/s
Channel(s) : 2 channels
Channel positions : Front: L R
Sampling rate : 48.0 kHz
Frame rate : 31.250 FPS (1536 SPF)
Bit depth : 16 bits
Compression mode : Lossy
Delay relative to video : 42 ms
Stream size : 141 MiB (2%)
Title : [UA-MVO-НЛО-ТВ] , 2/0 (L,R) ch, ~192 kbps
Language : Ukrainian
Service kind : Complete Main
Default : No
Forced : No

Audio #4
ID : 5
Format : AC-3
Format/Info : Audio Coding 3
Codec ID : A_AC3
Duration : 1 h 43 min
Bit rate mode : Constant
Bit rate : 640 kb/s
Channel(s) : 6 channels
Channel positions : Front: L C R, Side: L R, LFE
Sampling rate : 48.0 kHz
Frame rate : 31.250 FPS (1536 SPF)
Bit depth : 16 bits
Compression mode : Lossy
Stream size : 472 MiB (6%)
Language : English
Service kind : Complete Main
Default : No
Forced : No

Text
ID : 6
Format : UTF-8
Codec ID : S_TEXT/UTF8
Codec ID/Info : UTF-8 Plain Text
Duration : 1 h 36 min
Bit rate : 28 b/s
Count of elements : 851
Stream size : 20.0 KiB (0%)
Language : English
Default : No
Forced : No

Menu
00:00:00.000 : :Chapter 1
00:04:31.896 : :Chapter 2
00:10:51.901 : :Chapter 3
00:14:41.422 : :Chapter 4
00:17:05.774 : :Chapter 5
00:20:39.655 : :Chapter 6
00:25:09.549 : :Chapter 7
00:32:49.634 : :Chapter 8
00:38:06.117 : :Chapter 9
00:43:02.705 : :Chapter 10
00:51:15.739 : :Chapter 11
00:55:13.184 : :Chapter 12
01:00:04.350 : :Chapter 13
01:04:51.804 : :Chapter 14
01:09:58.235 : :Chapter 15
01:14:39.516 : :Chapter 16
01:20:58.520 : :Chapter 17
01:24:46.372 : :Chapter 18
01:30:30.675 : :Chapter 19
01:34:56.315 : :Chapter 20
Скріншоти




Джерело: &
Особиста оцінка: 10 - без зайвих вагань рекомендую всім!


 Трекер:    Зареєстрований   

Завантажити / скачати фільм українською



відео для новачків



 Зареєстрований:   2018-06-05 16:08
 Розмір:   7.9 GB 
 Оцінка фільму:   9.4/10 (Голосів: 19)
   
Інші релізи
   Щось / Дещо / The Thing (2011) AVC 3xUkr/Eng | Sub Eng staf777  3 / 0   2.5 GB   2018-08-04 20:40 
   Щось / Дещо / The Thing (2011) Remux 1080p 3xUkr/Eng | Sub Eng staf777  3 / 0   25.18 GB   2016-12-17 18:29 
   Щось / Дещо / The Thing (2011) 3xUkr patriot2305  4 / 0   1.73 GB   2014-11-29 16:52 
   Щось / Дещо / The Thing (2011) 720p 3xUkr/Eng | Sub Eng Sando7  1 / 0   6.52 GB   2014-11-24 16:47 
   Щось / Дещо / The Thing (2011) 2xUkr/Eng AngryBirdsUA  1 / 0   2.24 GB   2013-05-12 23:57 
bot 
робот


З нами з: 30.09.07
Востаннє: 26.05.05
Повідомлень: 25655

2018-06-05 16:08  
Тему перенесено з Анонси релізів до форуму Фільми в HD


staf777

gordonf 
Новенький


З нами з: 20.09.12
Востаннє: 29.09.20
Повідомлень: 17

2018-06-05 23:02  
Один із небагатьох справді вдалих сиквелів/приквелів/римейків (потрібне підкреслити) до класичних хоррорів!
Ваш часовий пояс: GMT + 2 Години

Нова тема   Відповісти