Сезон полювання: байки з лісу / Open Season: Scared Silly (2015) AVC Ukr/Eng | Sub Ukr/Eng

Нові коментарі

Нова тема   Відповісти
Автор Повідомлення
staf777 
Відео Гуртом - підтримка та поширення
Відео Гуртом - підтримка та поширення


З нами з: 16.11.16
Востаннє: 18.07.19
Повідомлень: 2667

2018-06-05 12:12  
Сезон полювання: байки з лісу / Open Season: Scared Silly (2015) AVC Ukr/Eng | Sub Ukr/Eng

Сезон полювання: байки з лісу / Open Season: Scared Silly (2015) AVC Ukr/Eng | Sub Ukr/Eng


Жанр: анімація, пригодницький, комедія
Країна: США



Кінокомпанія: Sony Pictures Animation
Режисер: Девід Фейс
Актори: Вільям Таунсенд, Мелісса Стурм, Тревор Деваль та інші.

Сюжет:
Oлень Елліот, такса Сосиска і їх друзі домовляються відучити ведмедя Бугу боятися всього на світі. Почувши біля нічного багаття байку про страшного вовка-перевертня, могутній грізлі зовсім втратив спокій і став вести себе як боягузлива миша. Через це у компанії зриваються класні канікули. Щоб «злякати» марні ведмежі страхи, Елліот і Сосиска споряджають експедицію в Темний Ліс, відкриваючи на його найзагадковішого мешканця ... свій сезон полювання. Але всі минулі пригоди тьмяніють у порівнянні з тим, що чекає лісову команду в цей раз. Запаморочливі погоні, прикольні жарти і круті сюжетні повороти - в першій мульт-комедії літа.


Тривалість: 01:24:45
Якість: AVC
Відео:
кодек:
розмір кадру: 1152x648
бітрейт: 2786 кб/с

Аудіо # 1:
мова: українська
переклад: професійний дубльований
кодек: 2.0
бітрейт: 192 кб/с

Аудіо # 2:
мова: англійська
переклад: оригінал
кодек: 5.1
бітрейт: 448 кб/с

Субтитри # 1-2:
мова: українська (форсовані, повні)
тип: програмні (м'які)
формат: *.srt

Субтитри 3-4:
мова: англійська
тип: програмні (м'які)
формат: *.srt
Info
General
Unique ID : 200743465713004014706159830295835080594 (0x9705C90145E45E8C8A8F337162207792)
Complete name : H:\Майбутні релізи\Open Season Scared Silly (2015) AVC [UKR_ENG] [Hurtom].
Format :
Format version : Version 4 / Version 2
File size : 2.03 GiB
Duration : 1 h 24 min
Overall bit rate : 3 429 kb/s
Movie name : Open Season: Scared Silly (2015) AVC [UKR_ENG] [Hurtom]
Encoded date : UTC 2018-06-05 11:22:26
Writing application : v9.8.0 ('Kuglblids') 64bit
Writing library : libebml v1.3.4 + v1.4.5
Cover : Yes
Attachments : cover.jpg..jpg

Video
ID : 1
Format : AVC
Format/Info : Advanced Video Codec
Format profile : [email protected]
Format settings : CABAC / 10 Ref Frames
Format settings, CABAC : Yes
Format settings, ReFrames : 10 frames
Codec ID : V_MPEG4/ISO/AVC
Duration : 1 h 24 min
Bit rate : 2 786 kb/s
Width : 1 152 pixels
Height : 648 pixels
Display aspect ratio : 16:9
Frame rate mode : Constant
Frame rate : 23.976 (24000/1001) FPS
Color space : YUV
Chroma subsampling : 4:2:0
Bit depth : 8 bits
Scan type : Progressive
Bits/(Pixel*Frame) : 0.156
Stream size : 1.65 GiB (81%)
Title : potroks
Writing library : core 148 r2665M a01e339
Encoding settings : cabac=1 / ref=10 / deblock=1:-1:-1 / analyse=0x3:0x133 / me=umh / subme=11 / psy=1 / psy_rd=1.05:0.05 / mixed_ref=1 / me_range=48 / chroma_me=1 / trellis=2 / 8x8dct=1 / cqm=0 / deadzone=21,11 / fast_pskip=0 / chroma_qp_offset=-3 / threads=9 / lookahead_threads=2 / sliced_threads=0 / nr=0 / decimate=1 / interlaced=0 / bluray_compat=0 / constrained_intra=0 / bframes=11 / b_pyramid=2 / b_adapt=2 / b_bias=0 / direct=3 / weightb=1 / open_gop=0 / weightp=2 / keyint=240 / keyint_min=23 / scenecut=40 / intra_refresh=0 / rc=2pass / mbtree=0 / bitrate=2786 / ratetol=1.0 / qcomp=0.70 / qpmin=0 / qpmax=69 / qpstep=4 / cplxblur=20.0 / qblur=0.5 / ip_ratio=1.40 / pb_ratio=1.30 / aq=1:0.80
Language : English
Default : Yes
Forced : No

Audio #1
ID : 2
Format : AC-3
Format/Info : Audio Coding 3
Codec ID : A_AC3
Duration : 1 h 24 min
Bit rate mode : Constant
Bit rate : 192 kb/s
Channel(s) : 2 channels
Channel positions : Front: L R
Sampling rate : 48.0 kHz
Frame rate : 31.250 FPS (1536 SPF)
Bit depth : 16 bits
Compression mode : Lossy
Stream size : 116 MiB (6%)
Title : Ukrainian: 48 kHz, , 2/0 (L,R) ch, ~192.00 kbps avg | iTunes Russia|
Language : Ukrainian
Service kind : Complete Main
Default : Yes
Forced : Yes

Audio #2
ID : 3
Format : AC-3
Format/Info : Audio Coding 3
Codec ID : A_AC3
Duration : 1 h 24 min
Bit rate mode : Constant
Bit rate : 448 kb/s
Channel(s) : 6 channels
Channel positions : Front: L C R, Side: L R, LFE
Sampling rate : 48.0 kHz
Frame rate : 31.250 FPS (1536 SPF)
Bit depth : 16 bits
Compression mode : Lossy
Stream size : 272 MiB (13%)
Title : Original | DD 5.1 @ 448 kbps
Language : English
Service kind : Complete Main
Default : No
Forced : No

Text #1
ID : 4
Format : UTF-8
Codec ID : S_TEXT/UTF8
Codec ID/Info : UTF-8 Plain Text
Duration : 1 h 9 min
Bit rate : 2 b/s
Count of elements : 37
Stream size : 1.44 KiB (0%)
Title : Forced
Language : Ukrainian
Default : Yes
Forced : Yes

Text #2
ID : 5
Format : UTF-8
Codec ID : S_TEXT/UTF8
Codec ID/Info : UTF-8 Plain Text
Duration : 1 h 20 min
Bit rate : 104 b/s
Count of elements : 1045
Stream size : 61.7 KiB (0%)
Title : iTunes
Language : Ukrainian
Default : No
Forced : No

Text #3
ID : 6
Format : UTF-8
Codec ID : S_TEXT/UTF8
Codec ID/Info : UTF-8 Plain Text
Duration : 1 h 19 min
Bit rate : 83 b/s
Count of elements : 1142
Stream size : 48.8 KiB (0%)
Title : Full
Language : English
Default : No
Forced : No

Text #4
ID : 7
Format : UTF-8
Codec ID : S_TEXT/UTF8
Codec ID/Info : UTF-8 Plain Text
Duration : 1 h 19 min
Bit rate : 93 b/s
Count of elements : 1468
Stream size : 54.8 KiB (0%)
Title : SDH
Language : English
Default : No
Forced : No

Menu
00:00:00.000 : :Chapter 01
00:05:02.635 : :Chapter 02
00:10:01.309 : :Chapter 03
00:13:58.671 : :Chapter 04
00:18:57.469 : :Chapter 05
00:25:54.886 : :Chapter 06
00:33:20.915 : :Chapter 07
00:39:17.229 : :Chapter 08
00:42:02.102 : :Chapter 09
00:47:39.356 : :Chapter 10
00:54:00.528 : :Chapter 11
00:58:00.643 : :Chapter 12
01:03:17.460 : :Chapter 13
01:08:40.366 : :Chapter 14
01:14:53.655 : :Chapter 15
01:18:20.904 : :Chapter 16
Скріншоти



Джерело: &
Особиста оцінка: 10 - без зайвих вагань рекомендую всім!


 Трекер:    Зареєстрований   

Завантажити / скачати мультфільм українською



відео для новачків



 Зареєстрований:   2018-06-05 15:07
 Розмір:   2.03 GB 
 Оцінка мультфільму:   9.7/10 (Голосів: 17)
   
Ваш часовий пояс: GMT + 2 Години

Нова тема   Відповісти