Родом з Абіса (1-5 з 13) / Made in Abyss (2017) 720р

Нові коментарі

Нова тема   Відповісти
Останній раз роздавалося TeronUA (2018-07-19)
Автор Повідомлення
Anonymous 







2018-06-04 20:51  
Родом з Абіса (1-5 з 13) / Made in Abyss (2017) 720р

Родом з Абіса (1-5 з 13) / Made in Abyss (2017) 720р


Жанр: пригоди, надприродне, містика, драма, фентезі
Країна: Японія

9.17 (1725 голосів)

Кіностудія / кінокомпанія: Kinema Citrus
Режисер: Коджіма Масаюкі
Ролі озвучують: Айс Марія, Томіта Мію, Охара Саяка, Ізава Шіорі та інші.

Сюжет:
Абіс – безодня, або ж ущелина, що простягається далеко вглиб Землі. Вона наповнена таємничими істотами та рекліктами з давніх-давен. Як же вона утворилась? Що міститься на дні? На ці питання шукають відповіді хоробрі ватаги людей, що звуть себе Нальотчиками, спускаючись вниз у царство темряви Абісу..


Тривалість: 1 серія: 23:45 (цілком серій: 1-5 із 13)
Перелік серій
Епізод 1 - Місто великої безодні
Епізод 2 - Фестиваль відродження
Епізод 3 - Відправлення
Епізод 4 - Край безодні
Епізод 5 - Спалювач
Якість:
Відео:
кодек:
розмір кадру: 1280 х 720
бітрейт: 2232 кб/с

Аудіо # 1:
мова: українська
переклад: багатоголосий закадровий
кодек: 2.0
бітрейт: 256 кб/с

Скріншоти




Звіт Info

Format :
Format version : Version 4 / Version 2
File size : 423 MiB
Duration : 23 min 42 s
Overall bit rate : 2 496 kb/s
Encoded date : UTC 2018-06-04 16:36:53
Writing application : v9.4.0 ('Knurl') 64bit
Writing library : libebml v1.3.4 + v1.4.5
Cover : Yes
Attachments : Cover.jpg

Video
ID : 1
Format : AVC
Format/Info : Advanced Video Codec
Format profile : High [email protected]
Format settings, CABAC : Yes
Format settings, ReFrames : 4 frames
Codec ID : V_MPEG4/ISO/AVC
Duration : 23 min 42 s
Bit rate : 2 232 kb/s
Width : 1 280 pixels
Height : 720 pixels
Display aspect ratio : 16:9
Frame rate mode : Constant
Frame rate : 23.976 (24000/1001) FPS
Color space : YUV
Chroma subsampling : 4:2:0
Bit depth : 10 bits
Scan type : Progressive
Bits/(Pixel*Frame) : 0.101
Stream size : 379 MiB (89%)
Writing library : core 148 r2744 b97ae06
Encoding settings : cabac=1 / ref=3 / deblock=1:1:-1 / analyse=0x3:0x113 / me=hex / subme=7 / psy=1 / psy_rd=1.00:0.00 / mixed_ref=1 / me_range=16 / chroma_me=1 / trellis=1 / 8x8dct=1 / cqm=0 / deadzone=21,11 / fast_pskip=1 / chroma_qp_offset=-2 / threads=3 / lookahead_threads=1 / sliced_threads=0 / nr=0 / decimate=1 / interlaced=0 / bluray_compat=0 / constrained_intra=0 / bframes=3 / b_pyramid=2 / b_adapt=1 / b_bias=0 / direct=1 / weightb=1 / open_gop=0 / weightp=2 / keyint=240 / keyint_min=23 / scenecut=40 / intra_refresh=0 / rc_lookahead=40 / rc=crf / mbtree=1 / crf=15.0 / qcomp=0.60 / qpmin=0 / qpmax=81 / qpstep=4 / ip_ratio=1.40 / aq=1:1.00
Language : Japanese
Default : Yes
Forced : No

Audio
ID : 2
Format :
Format/Info : Advanced Audio Codec
Format profile : LC
Codec ID : A_AAC
Duration : 23 min 42 s
Bit rate : 256 kb/s
Channel(s) : 2 channels
Channel positions : Front: L R
Sampling rate : 48.0 kHz
Frame rate : 46.875 FPS (1024 spf)
Compression mode : Lossy
Stream size : 43.4 MiB (10%)
Title : FanVoxUA
Language : Ukrainian
Default : Yes
Forced : No

Menu
00:00:00.000 : en:00:00:00.000
00:06:28.930 : en:00:06:28.930
00:08:18.957 : en:00:08:18.957
00:13:29.976 : en:00:13:29.976
00:22:00.945 : en:00:22:00.945
00:23:30.951 : en:00:23:30.951
Переклад та озвучення виконано:
Переклад: Areyssword (anitube.in.ua)
Ролі озвучили: Surgeon, MariAm, AdrianZP,Eternal Rage
Робота зі звуком: AdrianZP
Студія:
Постер: AdrianZP

Озвучено за підтримки Шлякбитраф та Анітюб ін ЮА

Особиста оцінка: 10 - без зайвих вагань рекомендую всім!


Авторський реліз (завантажувати можна без реєстрації)
 Трекер:    Зареєстрований   

Завантажити / скачати аніме українською



відео для новачків



 Зареєстрований:   2018-07-11 20:22
 Розмір:   2.45 GB 
 Оцінка аніме:   9.4/10 (Голосів: 20)
   
11FrYkT 
Модератор відео


З нами з: 20.02.11
Востаннє: 18.07.18
Повідомлень: 4782

2018-06-06 08:34  
Anonymous , додавайте імдб
Anonymous 







2018-06-09 21:03  
Додано 2 серію.
Anonymous 







2018-06-16 14:46  
Додано 3 серію.
Anonymous 







2018-06-28 12:28  
Додано 4 серію. (присутні субтитри - написи)
Anonymous 







2018-07-11 20:23  
Додано 5 серію.
Dandriel 
Новенький


З нами з: 01.04.16
Востаннє: 15.07.18
Повідомлень: 6

2018-07-15 20:31  
Серіал супер. Чекаю наступної серіі. Дякую.
njamnjam 
Новенький


З нами з: 16.10.10
Востаннє: 17.07.18
Повідомлень: 10

2018-07-17 22:25  
Ви молодці, дякую.
Ваш часовий пояс: GMT + 2 Години

Нова тема   Відповісти