Розкрадачка гробниць: Лара Крофт / Tomb Raider (2018) Remux 1080p Ukr/Eng | Sub Eng

Нові коментарі

Нова тема   Відповісти
Автор Повідомлення
staf777 
Попереджень: 1
Попереджень: 1 


З нами з: 16.11.16
Востаннє: 16.10.18
Повідомлень: 1632

2018-06-04 19:11  
Розкрадачка гробниць: Лара Крофт / Tomb Raider (2018) Remux 1080p Ukr/Eng | Sub Eng

Розкрадачка гробниць: Лара Крофт / Tomb Raider (2018) Remux 1080p Ukr/Eng | Sub Eng


Жанр: бойовик, пригоди
Країна: США, Велика Британія



Кінокомпанія: Metro-Goldwyn-Mayer, Warner Bros. Pictures, GK Films
Режисер: Роар Утхауг
Актори: Алісія Вікандер, Волтон Гоггінс, Деніел Ву, Домінік Вест, Ханна Джон-Кеймен, Крістін Скотт-Томас, Нік Фрост, Емілі Кер,і Майкл Обіора, Антоніо Аакіл та інші

Сюжет:
Лара Крофт – безстрашна дочка ексцентричного шукача пригод, який зник, коли Лара була підлітком. Зараз їй 21. Вона не має цілі в житті, грошей та заробляє на хліб кур’єром у Східному Лондоні. Налаштована самостійно торувати свій шлях, Лара навідріз відмовляється успадкувати батькові статки та прийняти його смерть. Але коли дівчина врешті наважується рухатись далі, то несподівано долучається до розслідування його таємничої смерті. Ця місія буде не з легких.


Тривалість: 01:57:50
Якість: Remux 1080p
Відео:
кодек:
розмір кадру: 1920x1080
бітрейт: 23,9 Mб/с

Аудіо # 1:
мова: українська
переклад: професійний дубльований | студія Postmodern
кодек: 2.0
бітрейт: 192 кб/с

Аудіо # 2:
мова: англійська
переклад: оригінал
кодек: TrueHD+Atmos 7.1
бітрейт: 3214 кб/с

Субтитри # 1-2: [Full,SDH]
мова: англійська
тип: програмні (м'які)
формат: *.srt
Info
General
Unique ID : 234135326763945663310760801497721977575 (0xB024D2DD0B27DE61A8CB3FD8F4C5BAE7)
Complete name : K:\Tomb Raider (2018) Remux 1080p [Ukr][Eng][Sub Eng][Hurtom].
Format :
Format version : Version 4 / Version 2
File size : 22.5 GiB
Duration : 1 h 57 min
Overall bit rate mode : Variable
Overall bit rate : 27.3 Mb/s
Movie name : Tomb Raider (2018) Remux 1080p [Ukr][Eng][Sub Eng][Hurtom]
Encoded date : UTC 2018-06-04 17:20:32
Writing application : v9.8.0 ('Kuglblids') 64bit
Writing library : libebml v1.3.4 + v1.4.5
Cover : Yes
Attachments : cover

Video
ID : 1
Format : AVC
Format/Info : Advanced Video Codec
Format profile : [email protected]
Format settings : CABAC / 4 Ref Frames
Format settings, CABAC : Yes
Format settings, ReFrames : 4 frames
Codec ID : V_MPEG4/ISO/AVC
Duration : 1 h 57 min
Bit rate mode : Variable
Bit rate : 23.9 Mb/s
Maximum bit rate : 28.0 Mb/s
Width : 1 920 pixels
Height : 1 080 pixels
Display aspect ratio : 16:9
Frame rate mode : Constant
Frame rate : 23.976 (24000/1001) FPS
Color space : YUV
Chroma subsampling : 4:2:0
Bit depth : 8 bits
Scan type : Progressive
Bits/(Pixel*Frame) : 0.480
Stream size : 19.6 GiB (87%)
Title : Tomb.Raider.2018.1080p.Remux
Language : English
Default : Yes
Forced : No

Audio #1
ID : 2
Format : AC-3
Format/Info : Audio Coding 3
Codec ID : A_AC3
Duration : 1 h 57 min
Bit rate mode : Constant
Bit rate : 192 kb/s
Channel(s) : 2 channels
Channel positions : Front: L R
Sampling rate : 48.0 kHz
Frame rate : 31.250 FPS (1536 SPF)
Bit depth : 16 bits
Compression mode : Lossy
Stream size : 162 MiB (1%)
Title : | студія Postmodern
Language : Ukrainian
Service kind : Complete Main
Default : Yes
Forced : Yes

Audio #2
ID : 3
Format : TrueHD
Format profile : TrueHD+Atmos / TrueHD
Codec ID : A_TRUEHD
Duration : 1 h 57 min
Bit rate mode : Variable
Bit rate : 3 214 kb/s
Maximum bit rate : 5 520 kb/s
Channel(s) : Object Based / 8 channels
Channel positions : Object Based / Front: L C R, Side: L R, Back: L R, LFE
Sampling rate : / 48.0 kHz
Frame rate : 1 200.000 FPS (40 SPF)
Compression mode : Lossless
Stream size : 2.65 GiB (12%)
Title : | Original, Atmos |
Language : English
Default : No
Forced : No

Text #1
ID : 4
Format : UTF-8
Codec ID : S_TEXT/UTF8
Codec ID/Info : UTF-8 Plain Text
Duration : 1 h 50 min
Bit rate : 31 b/s
Count of elements : 943
Stream size : 25.2 KiB (0%)
Title : Full
Language : English
Default : No
Forced : No

Text #2
ID : 5
Format : UTF-8
Codec ID : S_TEXT/UTF8
Codec ID/Info : UTF-8 Plain Text
Duration : 1 h 50 min
Bit rate : 36 b/s
Count of elements : 1200
Stream size : 29.6 KiB (0%)
Title : SDH
Language : English
Default : No
Forced : No

Menu
00:00:00.000 : en:Chapter 1
00:13:13.250 : en:Chapter 2
00:24:04.234 : en:Chapter 3
00:31:57.999 : en:Chapter 4
00:39:57.061 : en:Chapter 5
00:50:31.069 : en:Chapter 6
01:04:49.844 : en:Chapter 7
01:13:58.100 : en:Chapter 8
01:20:17.395 : en:Chapter 9
01:27:41.130 : en:Chapter 10
01:38:41.624 : en:Chapter 11
01:51:17.420 : en:Chapter 12
Скріншоти




Джерело: &
Особиста оцінка: 0 - не дивився


Золотий реліз (завантажене не впливає на рейтинг)
 Трекер:    Зареєстрований   

Завантажити / скачати фільм українською



відео для новачків



 Зареєстрований:   2018-06-04 20:48
 Розмір:   22.5 GB 
 Оцінка фільму:   8.1/10 (Голосів: 42)
   
skaldred 
Новенький


З нами з: 25.11.16
Востаннє: 14.10.18
Повідомлень: 1

2018-06-05 01:03  
СМІТТЯ а не фільм
Boba_yacek 
Новенький


З нами з: 17.10.09
Востаннє: 15.10.18
Повідомлень: 4

2018-06-05 11:31  
А 4 К буде?
winjer 
Новенький


З нами з: 20.03.16
Востаннє: 15.10.18
Повідомлень: 7

2018-06-05 18:36  
Boba_yacek
мене більше хвилює не 4к, а якісний звук, а не це Sad (1)

-_-B_Е_N_D_Е_R-_- 
Забанено
Забанено


З нами з: 30.05.18
Востаннє: 24.06.18
Повідомлень: 284

2018-06-05 18:40  
Boba_yacek
Візьми і зроби, що заважає?

kryk-v.ya. 
VIP


З нами з: 14.02.14
Востаннє: 16.10.18
Повідомлень: 612

2018-06-05 18:51  
skaldred написано:
СМІТТЯ а не фільм

то капєц,а я поставив качати.

realster 
Новенький


З нами з: 23.06.11
Востаннє: 16.10.18
Повідомлень: 3

2018-06-06 23:46  
skaldred
Це лише суто Ваша думка (Ви забули добавити).

AntarielD02 
Частий відвідувач


З нами з: 06.10.09
Востаннє: 13.10.18
Повідомлень: 38

2018-06-10 17:26  
коли буде нормальний звук - є інформація?
igor911 
Відео Гуртом
Відео Гуртом


З нами з: 18.01.08
Востаннє: 16.10.18
Повідомлень: 11233

2018-06-10 17:35  
AntarielD02, в тюнсі анонс на 18.06
upd. пробачаюсь, українська доріжка там не заявлена.

AntarielD02 
Частий відвідувач


З нами з: 06.10.09
Востаннє: 13.10.18
Повідомлень: 38

2018-06-10 19:00  
igor911 написано:

AntarielD02, в тюнсі анонс на 18.06
upd. пробачаюсь, українська доріжка там не заявлена.

Тобто кращого звуку чекати не варто?

igor911 
Відео Гуртом
Відео Гуртом


З нами з: 18.01.08
Востаннє: 16.10.18
Повідомлень: 11233

2018-06-10 19:07  
AntarielD02, є ще анонс на мeгого, там не вказано, чи буде укр.
Deiv 
Свій


З нами з: 16.07.16
Востаннє: 14.10.18
Повідомлень: 118

2018-06-10 23:10  
Саме на таку Лару Крофт я і чекав. Старт непоганий ,8-ка!
exitvray 
Частий відвідувач


З нами з: 17.02.13
Востаннє: 14.10.18
Повідомлень: 46

2018-06-12 00:19  
Над фільмом працювали...,є багато гарних сцен,гарних кадрів, 7,4/10
але усе-таки режисер баран-спрямував цей фільм на публіку 6-12 рочків- моментами "О_о життя на неймовірній волосині" і це 20 з лишнім разів за стрічку-це не занадто лише для дітей.
Якби не це було б дуже достойно.

Lyolic 
VIP


З нами з: 04.08.09
Востаннє: 16.10.18
Повідомлень: 303

2018-06-12 22:14  
Непогана казка під пиво Happy
Звук хоч і не дуже, але підкрутивши EQ дивитись можна.

Винищувач снiгурiв 
Новенький


З нами з: 16.09.17
Востаннє: 14.10.18
Повідомлень: 4

2018-06-13 21:12  
Весь фiльм звук як iз дупи. Це що, камрiп?
sergio777p 
Новенький


З нами з: 05.10.16
Востаннє: 11.10.18
Повідомлень: 16

2018-06-17 22:51  
Дуже затягнули початок і швидко показали розв'язку. Досить пустий сюжет. Не помітив гумору. Комп'ютерна графіка залишилась на рівні ігрової, що досить примитивно, для сучасного видавництва кіноіндустрії. Єдине, за що можно похвалити так це спробу, принаймні на початку, відтворити процес у грі у сюжет фільму. Тому поставив 6ть балів.
L`viv 
Забанено
Забанено


З нами з: 03.06.18
Востаннє: 12.07.18
Повідомлень: 29

2018-07-07 16:05  
На нормальний звук очікувати чи дивитсь вже англійською?
Wowatorrent 
Свій


З нами з: 24.03.16
Востаннє: 16.10.18
Повідомлень: 144

2018-07-07 20:19  
L`viv, якщо знаєш англійську, то по любому дивися англійською.
Sturm 
Забанено
Забанено


З нами з: 12.07.18
Востаннє: 27.07.18
Повідомлень: 30

2018-07-23 16:13  
Норм блокбастер як фон для гри на планшеті, очікував на гірше
Звук теж норм

Ваш часовий пояс: GMT + 2 Години

Нова тема   Відповісти