Не бий копитом / Home On The Range (2004) AVC Ukr/Eng | Sub Eng

Нові коментарі

Нова тема   Відповісти
Автор Повідомлення
staf777 
Відео Гуртом - підтримка та поширення
Відео Гуртом - підтримка та поширення


З нами з: 16.11.16
Востаннє: 20.10.20
Повідомлень: 4198

2018-06-04 16:44  
Не бий копитом / Home On The Range (2004) AVC Ukr/Eng | Sub Eng

Не бий копитом / Home On The Range (2004) AVC Ukr/Eng | Sub Eng


Жанр: анімація, комедія, вестерн
Країна: США



Режисер: Вілл Фінн/Will Finn, Джон Сенфорд/John Sanford
Актори: Роузенн/Roseanne/, Джуді Денч/Judi Dench/, Дженіфер Тіллі/Jennifer Tilly/, Кьюба Гудінг-мол./Cuba Gooding Jr./, Ренді Куейд/Randy Quaid/, Девід Бернем/David Burnham/, Стів Бусемі/Steve Buscemi/

Сюжет:
Життя на фермі просте і вільне. Господарі і вихованці живуть душа в душу, співають пісні і веселяться. Але раптово цій ідилії приходить кінець. На зміну збанкрутілим власникам ферми приходить безжальний ділок, охочий продати землю і позбавитися тварин. Природно, це не влаштовує звиклих до солодкого життя чотириногих і пернатих мешканців. Починається приголомшливо смішна партизанська війна. Керівниками бунту виступають кінь Бак і три корови-непосиди, що вирішили піти на все, щоб врятувати ферму від розорення. Хто переможе в цій битві? Не знаємо як ви, а парнокопитні упевнені у власних силах.


Тривалість: 01:16:12
Якість: AVC
Відео:
кодек:
розмір кадру: 1024x576
бітрейт: 2738 кб/с

Аудіо # 1:
мова: українська
переклад: професійний дубльований
кодек: 2.0
бітрейт: 192 кб/с

Аудіо # 2:
мова: англійська
переклад: оригінал
кодек: 5.1
бітрейт: 384 кб/с

Субтитри(full)(SDH):
мова: англійська
тип: програмні (м'які)
формат: *.srt
Info
General
Unique ID : 172571203407163389060755577436544262127 (0x81D4013BC1F68C78BC922C6481155FEF)
Complete name : H:\Майбутні релізи\ Home On The Range (2004) AVC [Ukr][Eng][Sub Eng][Hurtom].
Format :
Format version : Version 4 / Version 2
File size : 1.77 GiB
Duration : 1 h 16 min
Overall bit rate : 3 317 kb/s
Movie name : Home On The Range (2004) AVC [Ukr][Eng][Sub Eng][Hurtom]
Encoded date : UTC 2018-06-04 14:07:52
Writing application : v9.8.0 ('Kuglblids') 64bit
Writing library : libebml v1.3.4 + v1.4.5
Cover : Yes
Attachments : cover.jpg

Video
ID : 1
Format : AVC
Format/Info : Advanced Video Codec
Format profile : [email protected]
Format settings : CABAC / 10 Ref Frames
Format settings, CABAC : Yes
Format settings, ReFrames : 10 frames
Codec ID : V_MPEG4/ISO/AVC
Duration : 1 h 16 min
Bit rate : 2 738 kb/s
Width : 1 024 pixels
Height : 576 pixels
Display aspect ratio : 16:9
Frame rate mode : Constant
Frame rate : 23.976 (24000/1001) FPS
Color space : YUV
Chroma subsampling : 4:2:0
Bit depth : 8 bits
Scan type : Progressive
Bits/(Pixel*Frame) : 0.194
Stream size : 1.46 GiB (83%)
Title : Rip by 0ptimus
Writing library : core 125 r2208 d9d2288
Encoding settings : cabac=1 / ref=10 / deblock=1:-2:-1 / analyse=0x3:0x113 / me=umh / subme=11 / psy=1 / psy_rd=1.00:0.20 / mixed_ref=1 / me_range=32 / chroma_me=1 / trellis=2 / 8x8dct=1 / cqm=0 / deadzone=21,11 / fast_pskip=0 / chroma_qp_offset=-3 / threads=4 / lookahead_threads=1 / sliced_threads=0 / nr=0 / decimate=0 / interlaced=0 / bluray_compat=0 / constrained_intra=0 / bframes=8 / b_pyramid=2 / b_adapt=2 / b_bias=0 / direct=3 / weightb=1 / open_gop=0 / weightp=2 / keyint=240 / keyint_min=23 / scenecut=40 / intra_refresh=0 / rc_lookahead=40 / rc=2pass / mbtree=0 / bitrate=2738 / ratetol=1.0 / qcomp=0.60 / qpmin=0 / qpmax=69 / qpstep=4 / cplxblur=20.0 / qblur=0.5 / vbv_maxrate=50000 / vbv_bufsize=50000 / nal_hrd=none / ip_ratio=1.40 / pb_ratio=1.30 / aq=1:1.00
Language : English
Default : Yes
Forced : Yes

Audio #1
ID : 2
Format : AC-3
Format/Info : Audio Coding 3
Codec ID : A_AC3
Duration : 1 h 16 min
Bit rate mode : Constant
Bit rate : 192 kb/s
Channel(s) : 1 channel
Channel positions : Front: C
Sampling rate : 48.0 kHz
Frame rate : 31.250 FPS (1536 SPF)
Bit depth : 16 bits
Compression mode : Lossy
Stream size : 105 MiB (6%)
Title : 2.0 @ 192 kbps
Language : Ukrainian
Service kind : Complete Main
Default : Yes
Forced : Yes

Audio #2
ID : 3
Format : AC-3
Format/Info : Audio Coding 3
Codec ID : A_AC3
Duration : 1 h 16 min
Bit rate mode : Constant
Bit rate : 384 kb/s
Channel(s) : 6 channels
Channel positions : Front: L C R, Side: L R, LFE
Sampling rate : 48.0 kHz
Frame rate : 31.250 FPS (1536 SPF)
Bit depth : 16 bits
Compression mode : Lossy
Stream size : 209 MiB (12%)
Title : 5.1 @ 384 kbps
Language : English
Service kind : Complete Main
Default : No
Forced : No

Text #1
ID : 4
Format : UTF-8
Codec ID : S_TEXT/UTF8
Codec ID/Info : UTF-8 Plain Text
Duration : 1 h 9 min
Bit rate : 71 b/s
Count of elements : 1081
Stream size : 36.4 KiB (0%)
Language : English
Default : No
Forced : No

Text #2
ID : 5
Format : UTF-8
Codec ID : S_TEXT/UTF8
Codec ID/Info : UTF-8 Plain Text
Duration : 1 h 15 min
Bit rate : 71 b/s
Count of elements : 1214
Stream size : 39.7 KiB (0%)
Title : SDH
Language : English
Default : No
Forced : No

Menu
00:00:00.000 : en:1. "Home on the Range"
00:02:28.815 : en:2. "A Little Patch of Heaven"
00:05:32.832 : en:3. Meet Maggie
00:08:23.211 : en:4. Foreclosure
00:11:19.929 : en:5. Save the Farm
00:13:50.204 : en:6. Grace Notes
00:14:58.439 : en:7. Buck's Dream
00:16:56.140 : en:8. City Slickers
00:19:47.770 : en:9. Bounty Hunting
00:24:08.072 : en:10. Ranch Auction
00:25:34.825 : en:11. Bum Steers
00:27:14.258 : en:12. "Yodel-Adle-Eedle-Idle-Oo"
00:30:01.591 : en:13. Partner or No Partner
00:34:05.335 : en:14. Every Last Acre Counts
00:36:57.090 : en:15. Up for Bid
00:39:05.176 : en:16. Flash Flood
00:42:25.418 : en:17. "Will the Sun Ever Shine Again?"
00:44:38.426 : en:18. Lucky Jack - Desert Sage
00:48:10.012 : en:19. "Home on the Range" Reprise
00:48:40.459 : en:20. Wesley Arrives
00:49:50.154 : en:21. Cows Only
00:51:49.606 : en:22. A Simple Plan
00:55:15.312 : en:23. Get Slim!
00:57:59.351 : en:24. Buck's Turn
01:02:54.270 : en:25. To the Rescue
01:03:46.740 : en:26. The Showdown
01:08:10.336 : en:27. Home, Sweet Home
01:09:49.560 : en:28. "Wherever the Trail May Lead" (End Credits)
01:13:18.603 : en:29. "Anytime You Need a Friend"
Скріншоти





Джерело: &
Особиста оцінка: 0 - не дивився
Не бий копитом / Home On The Range (2004) AVC Ukr/Eng | Sub Eng


Срібний реліз (на рейтинг впливає 50% завантаженого)
 Трекер:    Зареєстрований   

Завантажити / скачати мультфільм українською



відео для новачків



 Зареєстрований:   2018-06-04 17:47
 Розмір:   1.77 GB 
 Оцінка мультфільму:   9.3/10 (Голосів: 23)
   
Інші релізи
   Не бий копитом / Home On The Range (2004) 1080p Ukr/Eng | Sub Eng staf777  1 / 0   6.14 GB   2017-01-14 21:29 
   Не бий копитом / Home On The Range (2004) Ukr/Eng xslim  7 / 0   1.45 GB   2014-12-07 15:41 
   Не бий копитом / Home On The Range (2004) 720p Ukr/Eng | Sub Eng 11FrYkT  2 / 0   3.01 GB   2012-07-26 17:40 
   Не бий копитом / Home On The Range (2004) ata  2 / 0   1.01 GB   2008-12-08 20:45 
bot 
робот


З нами з: 30.09.07
Востаннє: 26.05.05
Повідомлень: 25906

2018-06-04 17:47  
Тему перенесено з Анонси релізів до форуму Мультфільми


staf777

bot 
робот


З нами з: 30.09.07
Востаннє: 26.05.05
Повідомлень: 25906

2018-06-04 17:47  
Тему перенесено з Мультфільми до форуму Мультфільми


staf777

olimpian1 
VIP


З нами з: 19.10.13
Востаннє: 11.10.20
Повідомлень: 290

2019-05-14 10:52  
Класний мультик, дякую!
Ваш часовий пояс: GMT + 2 Години

Нова тема   Відповісти