Ґолдберги (Сезон 2) / The Goldbergs (Season 2) (2014) DVBRip-AVC

Нові коментарі

Нова тема   Відповісти
Автор Повідомлення
Anonymous 







2018-06-04 11:48  
Ґолдберги (Сезон 2) / The Goldbergs (Season 2) (2014) DVBRip-AVC

Перший сезон | Третій сезон | Четвертий сезон | П'ятий сезон | Шостий сезон



Жанр: комедія, сімейний
Країна: США



Кінокомпанія / телеканал: Adam F. Goldberg Productions, Happy Madison Productions, Sony Pictures Television
Режисер: Адам Ф. Ґолдберг
Актори/ролі озвучують: Венді Маклендон-Кові, Сіан Амброн, Трой Джентіле, Гейлі Орранція, Джордж Сігал, Джефф Гарлін

Сюжет:
Події серіалу відбуваються в «1980-якомусь році» в містечку Дженкінтаун. У центрі сюжету сім'я Ґолдбергів. Головний герой серіалу хлопчик на ім'я Адам, який полюбляє роботів, фільми та майже завжди ходить зі своєю відеокамерою і фіксує різні події свого життя та сім'ї.
Серіал частково засновано на дитинстві та юності продюсера та сценариста Адама Ф. Ґолдберга, який теж знімав в дитинстві усе камерою і реальні зйомки потрапили у кожну серію серіалу.


Тривалість: 1 серія: 20хв (цілком серій: 24)
Перелік серій

1. Love Is a Mix Tape
2. Mama Drama
3. The Facts of Bleeping Life
4. Shall We Play a Game?
5. Family Takes Care of Beverly
6. Big Baby Ball
7. A Goldberg Thanksgiving
8. I Rode a Hoverboard!
9. The Most Handsome Boy on the Planet
10. DannyDonnieJoeyJonJordan
11. The Darryl Dawkins Dance
12. Cowboy Country
13. Van People
14. Barry Goldberg's Day Off
15. Happy Mom, Happy Life
16. The Lost Boy
17. The Adam Bomb
18. I Drank the Mold!
19. La Biblioteca Es Libros?
20. Just Say No
21. As You Wish
22. Dance Party USA
23. Bill/Murray
24. Goldbergs Feel Hard
Якість: DVBRip
Відео:
кодек:
розмір кадру: 1024 х 572
бітрейт: 1300 - 1800 кб/с

Аудіо:
мова: українська
переклад: багатоголосий закадровий
кодек: 2.0
бітрейт: 192 кб/с

Джерело озвучення:
Скріншоти




MI
Complete name : E:\The Goldbergs (Season 2)\s02e01.mp4
Format : MPEG-4
Format profile : Base Media
Codec ID : isom (isom/iso2/avc1/mp41)
File size : 260 MiB
Duration : 20 min 39 s
Overall bit rate : 1 761 kb/s
Writing application : Lavf57.71.100

Video
ID : 1
Format : AVC
Format/Info : Advanced Video Codec
Format profile : [email protected]
Format settings, CABAC : Yes
Format settings, RefFrames : 10 frames
Codec ID : avc1
Codec ID/Info : Advanced Video Coding
Duration : 20 min 39 s
Bit rate : 1 564 kb/s
Width : 1 024 pixels
Height : 572 pixels
Display aspect ratio : 16:9
Frame rate mode : Constant
Frame rate : 25.000 FPS
Color space : YUV
Chroma subsampling : 4:2:0
Bit depth : 8 bits
Scan type : Progressive
Bits/(Pixel*Frame) : 0.107
Stream size : 231 MiB (89%)
Writing library : core 146 r2555 0c21480
Encoding settings : cabac=1 / ref=10 / deblock=1:0:0 / analyse=0x3:0x133 / me=umh / subme=9 / psy=1 / psy_rd=1.00:0.00 / mixed_ref=1 / me_range=16 / chroma_me=1 / trellis=1 / 8x8dct=1 / cqm=0 / deadzone=21,11 / fast_pskip=1 / chroma_qp_offset=-2 / threads=3 / lookahead_threads=1 / sliced_threads=0 / nr=0 / decimate=1 / interlaced=0 / bluray_compat=0 / constrained_intra=0 / bframes=4 / b_pyramid=2 / b_adapt=1 / b_bias=0 / direct=3 / weightb=1 / open_gop=0 / weightp=2 / keyint=250 / keyint_min=25 / scenecut=40 / intra_refresh=0 / rc_lookahead=40 / rc=crf / mbtree=1 / crf=20.0 / qcomp=0.60 / qpmin=10 / qpmax=51 / qpstep=4 / ip_ratio=1.40 / aq=1:1.00

Audio
ID : 2
Format : AC-3
Format/Info : Audio Coding 3
Format settings, Endianness : Big
Codec ID : ac-3
Duration : 20 min 39 s
Bit rate mode : Constant
Bit rate : 192 kb/s
Channel(s) : 2 channels
Channel positions : Front: L R
Sampling rate : 48.0 kHz
Frame rate : 31.250 FPS (1536 SPF)
Bit depth : 16 bits
Compression mode : Lossy
Stream size : 28.4 MiB (11%)
Language : English
Service kind : Complete Main
Default : Yes
Alternate group : 1
Подяка: Пану Sando7 за надані записи та пану Neytreenor за 8у серію.
Джерело:
Особиста оцінка: 10 - без зайвих вагань рекомендую всім!



Бронзовий реліз (на рейтинг впливає 75% завантаженого)
 Трекер:    Зареєстрований   

Завантажити / скачати серіал українською



відео для новачків



 Зареєстрований:   2018-06-04 11:48
 Розмір:   6.36 GB 
 Оцінка серіалу:   9.8/10 (Голосів: 5)
   
-_-B_Е_N_D_Е_R-_- 
Забанено
Забанено


З нами з: 30.05.18
Востаннє: 23.06.18
Повідомлень: 284

2018-06-04 11:57  
Можливо не варто квапитися і зробити
https://rarbg2018.org/torrents.php?search=The+Goldbergs+s02+1080p

igor911 
Відео Гуртом
Відео Гуртом


З нами з: 18.01.08
Востаннє: 14.11.18
Повідомлень: 11395

2018-06-04 15:24  
картинка якась мутна, мило + апскейл
Anonymous 







2018-06-04 17:55  
igor911
Приблизно така ж , як і в інших сезонах.
MI
Complete name : E:\The Goldbergs (Season 2)\s02e01.mp4
Format : MPEG-4
Format profile : Base Media
Codec ID : isom (isom/iso2/avc1/mp41)
File size : 260 MiB
Duration : 20 min 39 s
Overall bit rate : 1 761 kb/s
Writing application : Lavf57.71.100

Video
ID : 1
Format : AVC
Format/Info : Advanced Video Codec
Format profile : [email protected]
Format settings, CABAC : Yes
Format settings, RefFrames : 10 frames
Codec ID : avc1
Codec ID/Info : Advanced Video Coding
Duration : 20 min 39 s
Bit rate : 1 564 kb/s
Width : 1 024 pixels
Height : 572 pixels
Display aspect ratio : 16:9
Frame rate mode : Constant
Frame rate : 25.000 FPS
Color space : YUV
Chroma subsampling : 4:2:0
Bit depth : 8 bits
Scan type : Progressive
Bits/(Pixel*Frame) : 0.107
Stream size : 231 MiB (89%)
Writing library : core 146 r2555 0c21480
Encoding settings : cabac=1 / ref=10 / deblock=1:0:0 / analyse=0x3:0x133 / me=umh / subme=9 / psy=1 / psy_rd=1.00:0.00 / mixed_ref=1 / me_range=16 / chroma_me=1 / trellis=1 / 8x8dct=1 / cqm=0 / deadzone=21,11 / fast_pskip=1 / chroma_qp_offset=-2 / threads=3 / lookahead_threads=1 / sliced_threads=0 / nr=0 / decimate=1 / interlaced=0 / bluray_compat=0 / constrained_intra=0 / bframes=4 / b_pyramid=2 / b_adapt=1 / b_bias=0 / direct=3 / weightb=1 / open_gop=0 / weightp=2 / keyint=250 / keyint_min=25 / scenecut=40 / intra_refresh=0 / rc_lookahead=40 / rc=crf / mbtree=1 / crf=20.0 / qcomp=0.60 / qpmin=10 / qpmax=51 / qpstep=4 / ip_ratio=1.40 / aq=1:1.00

Audio
ID : 2
Format : AC-3
Format/Info : Audio Coding 3
Format settings, Endianness : Big
Codec ID : ac-3
Duration : 20 min 39 s
Bit rate mode : Constant
Bit rate : 192 kb/s
Channel(s) : 2 channels
Channel positions : Front: L R
Sampling rate : 48.0 kHz
Frame rate : 31.250 FPS (1536 SPF)
Bit depth : 16 bits
Compression mode : Lossy
Stream size : 28.4 MiB (11%)
Language : English
Service kind : Complete Main
Default : Yes
Alternate group : 1
ще скрінів



kotiko4321 
Частий відвідувач


З нами з: 18.11.16
Востаннє: 23.09.18
Повідомлень: 36

2018-07-23 17:20  
веселий ситком, особливо вразило озвучення, дуже якісне ще б трішки попрацювати й можливо б наблизились до Південного Парку.
Ваш часовий пояс: GMT + 2 Години

Нова тема   Відповісти