Фантастичний містер Лис / Fantastic Mr. Fox (2009) 720p Ukr/Eng | Sub Eng

Нові коментарі

Нова тема   Відповісти
Автор Повідомлення
staf777 
Відео Гуртом - підтримка та поширення
Відео Гуртом - підтримка та поширення


З нами з: 16.11.16
Востаннє: 27.11.20
Повідомлень: 4527

2018-06-03 19:52  
Фантастичний містер Лис / Fantastic Mr. Fox (2009) 720p Ukr/Eng | Sub Eng

Фантастичний містер Лис / Fantastic Mr. Fox (2009) 720p Ukr/Eng | Sub Eng


Жанр: анімація, пригоди, комедія
Країна: США



Кінокомпанія: Twentieth Century Fox Film Corporation, Indian Paintbrush, Regency Enterprises
Режисер: Вес Андерсон
Актори: Джордж Клуні, Меріл Стріп, Джейсон Шварцман, Білл Мюррей, Воллес Володарскі, Ерік Чейз Андерсон, Майкл Гембон та інші

Сюжет:
Розлючені фермери, втомлені від постійних нападів "хитрого лиса" на курники, готуються знищити свого ворога та його "хитру" родину. Що вийде з цього протистояння ...


Тривалість: 01:26:44
Якість: 720p
Відео:
кодек:
розмір кадру: 1280 x 692
бітрейт: 5000 кб/с

Аудіо # 1:
мова: українська
переклад:двоголосий закадровий
кодек: 2.0
бітрейт: 192 кб/с

Аудіо # 2:
мова: англійська
переклад: оригінал
кодек: 5.1
бітрейт: 1509 кб/с

Субтитри:
мова: англійська
тип: програмні (м'які)
формат: *.srt
Info
General
Unique ID : 232123169088608012734914096237441755833 (0xAEA14BD4A3E0CB709BE23F501374AAB9)
Complete name : I:\Fantastic Mr. Fox (2009) 720p [Ukr][Eng][Sub Eng][Hurtom].
Format :
Format version : Version 4 / Version 2
File size : 4.06 GiB
Duration : 1 h 26 min
Overall bit rate : 6 705 kb/s
Movie name : Fantastic Mr. Fox (2009) 720p [Ukr][Eng][Sub Eng][Hurtom]
Encoded date : UTC 2018-06-05 09:04:53
Writing application : v9.8.0 ('Kuglblids') 64bit
Writing library : libebml v1.3.4 + v1.4.5
Cover : Yes
Attachments : cover.jpg

Video
ID : 1
Format : AVC
Format/Info : Advanced Video Codec
Format profile : [email protected]
Format settings : CABAC / 6 Ref Frames
Format settings, CABAC : Yes
Format settings, ReFrames : 6 frames
Codec ID : V_MPEG4/ISO/AVC
Duration : 1 h 26 min
Bit rate : 5 000 kb/s
Width : 1 280 pixels
Height : 692 pixels
Display aspect ratio : 1.85:1
Frame rate mode : Constant
Frame rate : 23.976 FPS
Color space : YUV
Chroma subsampling : 4:2:0
Bit depth : 8 bits
Scan type : Progressive
Bits/(Pixel*Frame) : 0.235
Stream size : 3.03 GiB (75%)
Title : Release for HDCLUB
Writing library : core 85 r1442 781d300
Encoding settings : cabac=1 / ref=6 / deblock=1:-3:-3 / analyse=0x3:0x133 / me=umh / subme=10 / psy=1 / psy_rd=1.00:0.25 / mixed_ref=1 / me_range=64 / chroma_me=1 / trellis=2 / 8x8dct=1 / cqm=0 / deadzone=21,11 / fast_pskip=0 / chroma_qp_offset=-4 / threads=12 / sliced_threads=0 / nr=0 / decimate=0 / mbaff=0 / constrained_intra=0 / bframes=12 / b_pyramid=0 / b_adapt=2 / b_bias=0 / direct=3 / wpredb=1 / wpredp=2 / keyint=240 / keyint_min=24 / scenecut=40 / intra_refresh=0 / rc_lookahead=60 / rc=2pass / mbtree=1 / bitrate=5000 / ratetol=3.0 / qcomp=0.80 / qpmin=10 / qpmax=51 / qpstep=4 / cplxblur=20.0 / qblur=0.5 / vbv_maxrate=40000 / vbv_bufsize=30000 / ip_ratio=1.10 / aq=1:1.20
Language : English
Default : Yes
Forced : No

Audio #1
ID : 2
Format : AC-3
Format/Info : Audio Coding 3
Codec ID : A_AC3
Duration : 1 h 26 min
Bit rate mode : Constant
Bit rate : 192 kb/s
Channel(s) : 2 channels
Channel positions : Front: L R
Sampling rate : 48.0 kHz
Frame rate : 31.250 FPS (1536 SPF)
Bit depth : 16 bits
Compression mode : Lossy
Stream size : 119 MiB (3%)
Title : [UA-DVO]
Language : Ukrainian
Service kind : Complete Main
Default : Yes
Forced : Yes

Audio #2
ID : 3
Format :
Format/Info : Digital Theater Systems
Codec ID : A_DTS
Duration : 1 h 26 min
Bit rate mode : Constant
Bit rate : 1 509 kb/s
Channel(s) : 6 channels
Channel positions : Front: L C R, Side: L R, LFE
Sampling rate : 48.0 kHz
Frame rate : 93.750 FPS (512 SPF)
Bit depth : 24 bits
Compression mode : Lossy
Stream size : 936 MiB (23%)
Title : 5.1
Language : English
Default : No
Forced : No

Text
ID : 4
Format : UTF-8
Codec ID : S_TEXT/UTF8
Codec ID/Info : UTF-8 Plain Text
Duration : 1 h 25 min
Bit rate : 72 b/s
Count of elements : 1330
Stream size : 45.6 KiB (0%)
Language : English
Default : No
Forced : No

Menu
00:00:00.000 : en:1. Main Title / Trapped!
00:04:30.353 : en:2. Living in a Hole
00:06:35.729 : en:3. Just Buy the Tree
00:09:59.974 : en:4. Unwelcome Houseguest
00:14:35.875 : en:5. One Last Big Job
00:17:00.811 : en:6. Master Plan
00:21:22.072 : en:7. Whack-Bat
00:23:56.894 : en:8. Bean's Secret Cider Cellar
00:30:15.605 : en:9. Tails Don't Grow Back
00:32:31.950 : en:10. Dig!
00:36:20.011 : en:11. No Ticks, No Lice
00:38:27.055 : en:12. The Siege Begins
00:41:56.556 : en:13. Triple Header
00:45:30.770 : en:14. Ash's Brilliant Brainstorm
00:49:23.210 : en:15. Apple Juice Flood
00:51:50.899 : en:16. Waving the White Flag
00:54:45.365 : en:17. Redemption
00:58:33.301 : en:18. Going for Broke
01:01:19.342 : en:19. On Fire
01:05:44.941 : en:20. Rescue Mission
01:11:15.730 : en:21. Less Than a Slice of Bread
01:14:22.917 : en:22. What a Beautiful Creature
01:15:54.925 : en:23. A Good Toast
01:20:00.462 : en:24. Let Her Dance / End Titles
Скріншоти



Джерело: &
За запис сирого звуку подяка xslim та akon111
За зведення доріжки подяка MutuLI

Особиста оцінка: 0 - не дивився


 Трекер:    Зареєстрований   

Завантажити / скачати мультфільм українською



відео для новачків



 Зареєстрований:   2018-06-05 11:59
 Розмір:   4.06 GB 
 Оцінка мультфільму:   8.8/10 (Голосів: 13)
   
-_-B_Е_N_D_Е_R-_- 
Забанено
Забанено


З нами з: 30.05.18
Востаннє: 23.06.18
Повідомлень: 281

2018-06-03 20:33  
Класний мульт
MutuLI 
Відео Гуртом - фільмокрай
Відео Гуртом - фільмокрай


З нами з: 08.03.09
Востаннє: 27.11.20
Повідомлень: 2001

2018-06-03 21:21  
https://toloka.to/t34100
бери з цього релізу, там студійний звук

bot 
робот


З нами з: 30.09.07
Востаннє: 26.05.05
Повідомлень: 26384

2018-06-05 11:58  
Тему перенесено з Анонси релізів до форуму Мультфільми в HD


staf777

staf777 
Відео Гуртом - підтримка та поширення
Відео Гуртом - підтримка та поширення


З нами з: 16.11.16
Востаннє: 27.11.20
Повідомлень: 4527

2018-06-05 13:36  
MutuLI написано:

https://toloka.to/t34100
бери з цього релізу, там студійний звук

Дякую

Ваш часовий пояс: GMT + 2 Години

Нова тема   Відповісти