Хроніки Шаннари (Сезон 2) / The Shannara Chronicles (Season 2) (2017) AVC 2xUkr/Eng

Нові коментарі

Нова тема   Відповісти
Автор Повідомлення
Anonymous 







2018-06-03 16:00  
Хроніки Шаннари (Сезон 2) / The Shannara Chronicles (Season 2) (2017) AVC 2xUkr/Eng

Хроніки Шаннари (Сезон 2) / The Shannara Chronicles (Season 2) (2017) AVC 2xUkr/Eng


Жанр: пригодницький, фентезі, фантастика
Країна: США



Кінокомпанія: Farah Films, Music Television (MTV), Sonar Entertainment
Режисер: Джонатан Лібесман (Jonathan Liebesman), Джеймс Маршал (James Marshall), Бред Тьорнер (Brad Turner), Джессі Ворн (Jesse Warn)
Актори: Остін Батлер (Austin Butler), Поппі Дрейтон (Poppy Drayton), Івана Бакеро (Ivana Baquero), Ману Бенет (Manu Bennett), Аарон Якубенко (Aaron Jakubenko), Маркус Ванко (Marcus Vanco), Меліс Джоу (Malese Jow), Ванесса Морґан (Vanessa Morgan) та інші.

Сюжет:
Здолавши Даґдамора і завершивши успішно завдання, герої зазнали втрат та розділилися. Віл вирушив на пошуки Еретреї, яка залишилася у пастці тролів. Емберлі стала Елкріс, а Бендон здався темряві та рушив своїм шляхом. Та зло ніколи не спить і завдасть ударі знову. Тож наші герої зберуться обєднаються і новими союзниками та вирушать на пошуки меча Шаннари, щоб дати бій майбутній загрозі.


Тривалість: 1 серія: ~42 хв. (цілком серій: 10)
Перелік серій
01) Druid
02) Wraith
03) Graymark
04) Dweller
05) Paranor
06) Crimson
07) Warlock
08) Amberle
09) Wilderun
10) Blood
Якість:
Відео:
кодек:
розмір кадру: 720 х 404
бітрейт: ~1100 кб/с

Аудіо # 1 (Новий):
мова: українська
переклад: багатоголосий закадровий
кодек: 2.0
бітрейт: 192 кб/с

Джерело озвучення:


Аудіо # 2 (BaibaKo):
мова: українська
переклад: багатоголосий закадровий
кодек: 2.0
бітрейт: 192 кб/с

Джерело озвучення:


Аудіо # 3:
мова: англійська
переклад: оригінал
кодек: 2.0
бітрейт: ~150 кб/с

Субтитри # 1 (форсовані, на місце у 9-й серії, яке Новий забув озвучити):
мова: українська
тип: програмні (м'які)
формат: *.srt
Info
General
Unique ID : 204223607301047008326268221644784932367 (0x99A4093B916D0A0EC13E954167D2160F)
Complete name : E:\_inbox\torrents\The Shannara Chronicles (Season 2) [, Ukr, Eng]\The Shannara Chronicles. S02E09. Wilderun.
Format :
Format version : Version 4 / Version 2
File size : 424 MiB
Duration : 41 min 0 s
Overall bit rate : 1 444 kb/s
Encoded date : UTC 2018-06-02 18:22:58
Writing application : v23.0.0 ('The Bride Said No') 64-bit
Writing library : libebml v1.3.6 + v1.4.9

Video
ID : 1
Format : AVC
Format/Info : Advanced Video Codec
Format profile : [email protected]
Format settings : CABAC / 5 Ref Frames
Format settings, CABAC : Yes
Format settings, ReFrames : 5 frames
Codec ID : V_MPEG4/ISO/AVC
Duration : 40 min 59 s
Bit rate : 906 kb/s
Width : 720 pixels
Height : 404 pixels
Display aspect ratio : 16:9
Frame rate mode : Constant
Frame rate : 24.000 FPS
Color space : YUV
Chroma subsampling : 4:2:0
Bit depth : 8 bits
Scan type : Progressive
Bits/(Pixel*Frame) : 0.130
Stream size : 266 MiB (63%)
Writing library : core 152 r2851kMod ba24899
Encoding settings : cabac=1 / ref=5 / deblock=1:0:0 / analyse=0x3:0x113 / me=umh / subme=8 / psy=1 / fade_compensate=0.00 / psy_rd=1.00:0.00 / mixed_ref=1 / me_range=16 / chroma_me=1 / trellis=2 / 8x8dct=1 / cqm=0 / deadzone=21,11 / fast_pskip=1 / chroma_qp_offset=-2 / threads=13 / lookahead_threads=2 / sliced_threads=0 / nr=0 / decimate=1 / interlaced=0 / bluray_compat=0 / constrained_intra=0 / bframes=3 / b_pyramid=2 / b_adapt=1 / b_bias=0 / direct=3 / weightb=1 / open_gop=0 / weightp=2 / keyint=250 / keyint_min=24 / scenecut=40 / intra_refresh=0 / rc_lookahead=50 / rc=crf / mbtree=1 / crf=19.0000 / qcomp=0.60 / qpmin=0 / qpmax=69 / qpstep=4 / ip_ratio=1.40 / aq=1:1.00
Language : English
Default : Yes
Forced : No
Color range : Limited
Matrix coefficients : BT.709

Audio #1
ID : 2
Format : AC-3
Format/Info : Audio Coding 3
Codec ID : A_AC3
Duration : 41 min 0 s
Bit rate mode : Constant
Bit rate : 192 kb/s
Channel(s) : 2 channels
Channel positions : Front: L R
Sampling rate : 48.0 kHz
Frame rate : 31.250 FPS (1536 SPF)
Bit depth : 16 bits
Compression mode : Lossy
Stream size : 56.3 MiB (13%)
Title : Новий
Language : Ukrainian
Service kind : Complete Main
Default : Yes
Forced : No

Audio #2
ID : 3
Format : AC-3
Format/Info : Audio Coding 3
Codec ID : A_AC3
Duration : 41 min 0 s
Bit rate mode : Constant
Bit rate : 192 kb/s
Channel(s) : 2 channels
Channel positions : Front: L R
Sampling rate : 48.0 kHz
Frame rate : 31.250 FPS (1536 SPF)
Bit depth : 16 bits
Compression mode : Lossy
Stream size : 56.3 MiB (13%)
Title : BaibaKo
Language : Ukrainian
Service kind : Complete Main
Default : No
Forced : No

Audio #3
ID : 4
Format :
Format/Info : Advanced Audio Codec
Format profile : LC
Codec ID : A_AAC-2
Duration : 41 min 0 s
Bit rate : 152 kb/s
Channel(s) : 2 channels
Channel positions : Front: L R
Sampling rate : 48.0 kHz
Frame rate : 46.875 FPS (1024 SPF)
Compression mode : Lossy
Delay relative to video : 9 ms
Stream size : 44.5 MiB (11%)
Language : English
Default : No
Forced : No

Text
ID : 5
Format : UTF-8
Codec ID : S_TEXT/UTF8
Codec ID/Info : UTF-8 Plain Text
Duration : 10 s 10 ms
Bit rate : 182 b/s
Count of elements : 4
Stream size : 228 Bytes (0%)
Language : Ukrainian
Default : Yes
Forced : Yes
Скріншоти

Дякую drakon87 та krigg070 за допомогу з записом з ТБ

Джерело: &
Особиста оцінка: 7 - гарна казочка, та перший сезон був значно краще





Авторський реліз (завантажувати можна без реєстрації)
 Трекер:    Зареєстрований   

Завантажити / скачати серіал українською



відео для новачків



 Зареєстрований:   2018-06-03 16:00
 Розмір:   4.68 GB 
 Оцінка серіалу:   9.5/10 (Голосів: 4)
   
Ваш часовий пояс: GMT + 2 Години

Нова тема   Відповісти