10 000 років до н.е. / 10,000 BC (2008) 1080p Ukr/Eng | Sub Ukr/Eng

Нові коментарі

Нова тема   Відповісти
Автор Повідомлення
staf777 
Попереджень: 1
Попереджень: 1 


З нами з: 16.11.16
Востаннє: 16.10.18
Повідомлень: 1632

2018-06-03 10:22  
10 000 років до н.е. / 10,000 BC (2008) 1080p Ukr/Eng | Sub Ukr/Eng

10 000 років до н.е. / 10,000 BC (2008) 1080p Ukr/Eng | Sub Ukr/Eng
Альтернативний постер:



Жанр: екшн, пригодницький, драма
Країна: США, Південна Африка



Кінокомпанія: Warner Bros
Режисер: Роланд Еммеріх
Актори: Стівен Стрейт / Steven Strait, Камілла Белль / Camilla Belle, Кліфф Кертіс / Cliff Curtis, Джоель Вірджіл / Joel Virgel, Аффіф Бен Бадра / Affif Ben Badra, Мо Зінал / Mo Zinal, Натаніель Барінг / Nathanael Baring, Мона Хеммонд / Mona Hammond, Марко Хан / Marco Khan, Ріс Річі / Reece Ritchie, Джоел Фрай / Joel Fry, Омар Шаріф / Omar Sharif, Крістіан Бізлі / Kristian Beazley, Джуніор Оліфант / Junior Oliphant, Луїза Туу / Louise Tu'u

Сюжет:
У далекому гірському племені молодий мисливець Д'лех знайшов свою любов - красуню Еволет. Але коли загадкове войовниче плем'я напало на село і викрало Еволет, Д'леху нічого не залишалося, як очолити невелику групу мисливців, щоб проїхати за цими володарями війни навіть на самий край світу, щоб врятувати кохану.

Веденому долею загону невмілих воїнів належить битися з шаблезубими тиграми і доісторичними хижаками і в кінці героїчної подорожі знайти Втрачену Цивілізацію. Доля їх цілком знаходиться у владі імперії, яка не піддається уяві, тій, де великі піраміди тягнуться до небес. І там вони приймуть бій проти могутнього бога, що жорстко поневолив їх народ.


Тривалість: 01:48:21
Якість: 1080p
Відео:
кодек:
розмір кадру: 1920x796
бітрейт: 6900 кб/с

Аудіо # 1:
мова: українська
переклад: професійний дубльований
кодек: 5.1
бітрейт: 640 кб/с

Аудіо # 2:
мова: англійська
переклад: оригінал
кодек: 5.1
бітрейт: 640 кб/с

Субтитри # 1-2:
мова: українська (форсовані, повні)
тип: програмні (м'які)
формат: *.srt

Субтитри # 3:
мова: англійська (SDH)
тип: програмні (м'які)
формат: *.srt
Info
General
Unique ID : 228809519826446632199484824093433108899 (0xAC231C4EEF84417894C4F45B435D99A3)
Complete name : K:\10,000 BC (2008) 1080p [UKR_ENG] [Hurtom].
Format :
Format version : Version 4 / Version 2
File size : 6.22 GiB
Duration : 1 h 48 min
Overall bit rate : 8 174 kb/s
Movie name : 10,000 BC (2008) AVC [UKR_ENG] [Hurtom]
Encoded date : UTC 2018-06-03 08:22:49
Writing application : v9.8.0 ('Kuglblids') 64bit
Writing library : libebml v1.3.4 + v1.4.5
Cover : Yes
Attachments : cover.png

Video
ID : 1
Format : AVC
Format/Info : Advanced Video Codec
Format profile : [email protected]
Format settings : CABAC / 4 Ref Frames
Format settings, CABAC : Yes
Format settings, ReFrames : 4 frames
Codec ID : V_MPEG4/ISO/AVC
Duration : 1 h 48 min
Bit rate : 6 900 kb/s
Width : 1 920 pixels
Height : 796 pixels
Display aspect ratio : 2.40:1
Frame rate mode : Constant
Frame rate : 23.976 (24000/1001) FPS
Color space : YUV
Chroma subsampling : 4:2:0
Bit depth : 8 bits
Scan type : Progressive
Bits/(Pixel*Frame) : 0.188
Stream size : 5.24 GiB (84%)
Title : 10,000 BC (2008)
Writing library : core 138 r2358 9e941d1
Encoding settings : cabac=1 / ref=4 / deblock=1:-3:-3 / analyse=0x3:0x113 / me=umh / subme=10 / psy=1 / psy_rd=1.00:0.15 / mixed_ref=1 / me_range=32 / chroma_me=1 / trellis=2 / 8x8dct=1 / cqm=0 / deadzone=21,11 / fast_pskip=0 / chroma_qp_offset=-3 / threads=3 / lookahead_threads=1 / sliced_threads=0 / nr=0 / decimate=0 / interlaced=0 / bluray_compat=0 / constrained_intra=0 / bframes=6 / b_pyramid=2 / b_adapt=2 / b_bias=0 / direct=3 / weightb=1 / open_gop=0 / weightp=2 / keyint=240 / keyint_min=24 / scenecut=40 / intra_refresh=0 / rc_lookahead=60 / rc=2pass / mbtree=0 / bitrate=6900 / ratetol=1.0 / qcomp=0.65 / qpmin=0 / qpmax=69 / qpstep=4 / cplxblur=20.0 / qblur=0.5 / vbv_maxrate=40000 / vbv_bufsize=30000 / nal_hrd=none / ip_ratio=1.40 / pb_ratio=1.30 / aq=1:0.80
Language : English
Default : Yes
Forced : No

Audio #1
ID : 2
Format : AC-3
Format/Info : Audio Coding 3
Codec ID : A_AC3
Duration : 1 h 48 min
Bit rate mode : Constant
Bit rate : 640 kb/s
Channel(s) : 6 channels
Channel positions : Front: L C R, Side: L R, LFE
Sampling rate : 48.0 kHz
Frame rate : 31.250 FPS (1536 SPF)
Bit depth : 16 bits
Compression mode : Lossy
Stream size : 499 MiB (8%)
Title : / 5.1 ch / 640 kbps / BD CEE
Language : Ukrainian
Service kind : Complete Main
Default : Yes
Forced : Yes

Audio #2
ID : 3
Format : AC-3
Format/Info : Audio Coding 3
Codec ID : A_AC3
Duration : 1 h 48 min
Bit rate mode : Constant
Bit rate : 640 kb/s
Channel(s) : 6 channels
Channel positions : Front: L C R, Side: L R, LFE
Sampling rate : 48.0 kHz
Frame rate : 31.250 FPS (1536 SPF)
Bit depth : 16 bits
Compression mode : Lossy
Stream size : 499 MiB (8%)
Title : / 5.1 ch / 640 kbps / original, BD CEE
Language : English
Service kind : Complete Main
Default : No
Forced : No

Text #1
ID : 4
Format : UTF-8
Codec ID : S_TEXT/UTF8
Codec ID/Info : UTF-8 Plain Text
Duration : 1 h 9 min
Bit rate : 4 b/s
Count of elements : 64
Stream size : 2.05 KiB (0%)
Title : Forced, BD CEE
Language : Ukrainian
Default : Yes
Forced : Yes

Text #2
ID : 5
Format : UTF-8
Codec ID : S_TEXT/UTF8
Codec ID/Info : UTF-8 Plain Text
Duration : 1 h 47 min
Bit rate : 37 b/s
Count of elements : 619
Stream size : 29.1 KiB (0%)
Title : Full, BD CEE
Language : Ukrainian
Default : No
Forced : No

Text #3
ID : 6
Format : UTF-8
Codec ID : S_TEXT/UTF8
Codec ID/Info : UTF-8 Plain Text
Duration : 1 h 36 min
Bit rate : 29 b/s
Count of elements : 745
Stream size : 21.1 KiB (0%)
Title : SDH, BD CEE
Language : English
Default : No
Forced : No

Menu
00:00:00.000 : :Chapter 01
00:05:35.668 : :Chapter 02
00:09:46.168 : :Chapter 03
00:13:39.860 : :Chapter 04
00:17:27.254 : :Chapter 05
00:20:22.679 : :Chapter 06
00:24:48.278 : :Chapter 07
00:27:51.670 : :Chapter 08
00:30:28.827 : :Chapter 09
00:34:41.662 : :Chapter 10
00:39:04.467 : :Chapter 11
00:44:46.141 : :Chapter 12
00:47:53.495 : :Chapter 13
00:52:24.099 : :Chapter 14
00:56:56.704 : :Chapter 15
01:01:34.190 : :Chapter 16
01:06:30.736 : :Chapter 17
01:10:58.045 : :Chapter 18
01:13:46.505 : :Chapter 19
01:17:18.550 : :Chapter 20
01:19:43.528 : :Chapter 21
01:24:17.177 : :Chapter 22
01:29:54.263 : :Chapter 23
01:32:52.066 : :Chapter 24
01:35:40.985 : :Chapter 25
01:37:52.032 : :Chapter 26
Скріншоти




Джерело: &
Особиста оцінка: 0 - не дивився
10 000 років до н.е. / 10,000 BC (2008) 1080p Ukr/Eng | Sub Ukr/Eng


 Трекер:    Зареєстрований   

Завантажити / скачати фільм українською



відео для новачків



 Зареєстрований:   2018-06-03 11:47
 Розмір:   6.22 GB 
 Оцінка фільму:   7.8/10 (Голосів: 5)
   
Інші релізи
hatak 
Свій


З нами з: 30.04.15
Востаннє: 16.10.18
Повідомлень: 53

2018-06-03 14:08  
Стара добра стрічка про давнє минуле. Все описується назвами жанрів: драма та екшн, мабуть, в рівних пропорціях. Дивитись цікаво. Не нудний сюжет, багато динамічних моментів. Дуже пристойна графіка. Красива пригода з елементами романтизму, пафосу та віри в перемогу добра. А те, що в одному(!) часовому проміжку (10000 років тому) в Африці(!) зустрілись мамонти, шаблезубі тигри, якісь хижі птахи та Єгипетські піраміди — це не повинно зіпсувати загальне враження від фільму.
Ваш часовий пояс: GMT + 2 Години

Нова тема   Відповісти