Чорний кіт Рудольф / Жив собі кіт / Rudorufu to ippai attena / Rudolf the Black Cat (2016) AVC 2xUkr

Нові коментарі

Нова тема   Відповісти
Автор Повідомлення
sergiyko.5 
VIP


З нами з: 25.02.16
Востаннє: 16.06.19
Повідомлень: 2327

2018-06-02 22:16  
Чорний кіт Рудольф / Жив собі кіт / Rudorufu to ippai attena / Rudolf the Black Cat (2016) AVC 2xUkr


Чорний кіт Рудольф / Жив собі кіт / Rudorufu to ippai attena / Rudolf the Black Cat (2016) AVC 2xUkr

Жанр: пригоди, комедія
Країна: Японія, Канада
Кінокомпанія: Bandai, Chukyo TV Broadcasting Company (CTV), D.N. Dream Partners
Режисер: Мікінорі Сакакібара, Куніхіко Юяма

Сюжет:
Історія маленького чорного кошеня з гордим ім'ям Рудольф, який жив щасливо і спокійно рівно до тих пір, поки через фатальну випадковість він не виявився в невідомому великому місті. Тут герою доведеться виживати без ласки і турботи господарів, але ж раніше він був твердо переконаний, що завжди буде в цілковитій безпеці.




Тривалість: 01:28:39
Якість:

Відео: кодек: розмір кадру: 1024 х 576 бітрейт: 1900 кб/с
Аудіо # 1: мова: українська переклад: багатоголосий закадровий кодек: 2.0 бітрейт: 192 кб/с
Озвучення:
Аудіо # 2: мова: українська переклад: багатоголосий закадровий кодек: 2.0 бітрейт: 192 кб/с
Озвучення: CINE+ KIDS HD
Info
General
Unique ID : 262343470401204623412641035041264542768 (0xC55D83B8A1DB867FA7E0153EA376A430)
Complete name : G:\Torrents2\MULT\Rudolf.the.Black.Cat.2016..
Format :
Format version : Version 4
File size : 1.42 GiB
Duration : 1 h 28 min
Overall bit rate : 2 286 kb/s
Movie name : Rudolf The Black Cat 2016 by sergiyko
Encoded date : UTC 2019-02-20 09:19:10
Writing application : v30.0.0 ('Interstellar') 64-bit
Writing library : libebml v1.3.6 + v1.4.9

Video
ID : 1
Format : AVC
Format/Info : Advanced Video Codec
Format profile : [email protected]
Format settings : CABAC / 10 Ref Frames
Format settings, CABAC : Yes
Format settings, ReFrames : 10 frames
Codec ID : V_MPEG4/ISO/AVC
Duration : 1 h 28 min
Bit rate : 1 900 kb/s
Width : 1 024 pixels
Height : 576 pixels
Display aspect ratio : 16:9
Frame rate mode : Constant
Frame rate : 23.976 (24000/1001) FPS
Color space : YUV
Chroma subsampling : 4:2:0
Bit depth : 8 bits
Scan type : Progressive
Bits/(Pixel*Frame) : 0.134
Stream size : 1.18 GiB (83%)
Title : Rudolf The Black Cat 2016
Writing library : core 152
Encoding settings : cabac=1 / ref=10 / deblock=1:-2:-2 / analyse=0x3:0x113 / me=umh / subme=11 / psy=1 / psy_rd=1,15:0,20 / mixed_ref=1 / me_range=24 / chroma_me=1 / trellis=2 / 8x8dct=1 / cqm=0 / deadzone=21,11 / fast_pskip=1 / chroma_qp_offset=-3 / threads=6 / lookahead_threads=1 / sliced_threads=0 / nr=0 / decimate=1 / interlaced=0 / bluray_compat=0 / constrained_intra=0 / bframes=11 / b_pyramid=2 / b_adapt=1 / b_bias=0 / direct=1 / weightb=1 / open_gop=0 / weightp=2 / keyint=240 / keyint_min=24 / scenecut=40 / intra_refresh=0 / rc_lookahead=40 / rc=2pass / mbtree=1 / bitrate=1900 / ratetol=1,0 / qcomp=0,60 / qpmin=0 / qpmax=69 / qpstep=4 / cplxblur=20,0 / qblur=0,5 / vbv_maxrate=62500 / vbv_bufsize=78125 / nal_hrd=none / filler=0 / ip_ratio=1,40 / aq=1:1,00
Language : Japanese
Default : Yes
Forced : No
Color range : Limited
Color primaries : BT.709
Transfer characteristics : BT.709
Matrix coefficients : BT.709

Audio #1
ID : 2
Format : AC-3
Format/Info : Audio Coding 3
Commercial name : Dolby Digital
Codec ID : A_AC3
Duration : 1 h 28 min
Bit rate mode : Constant
Bit rate : 192 kb/s
Channel(s) : 2 channels
Channel layout : L R
Sampling rate : 48.0 kHz
Frame rate : 31.250 FPS (1536 SPF)
Bit depth : 16 bits
Compression mode : Lossy
Stream size : 122 MiB (8%)
Title : MOV 2ch | ТЕТ
Language : Ukrainian
Service kind : Complete Main
Default : Yes
Forced : No

Audio #2
ID : 3
Format : AC-3
Format/Info : Audio Coding 3
Commercial name : Dolby Digital
Codec ID : A_AC3
Duration : 1 h 28 min
Bit rate mode : Constant
Bit rate : 192 kb/s
Channel(s) : 2 channels
Channel layout : L R
Sampling rate : 48.0 kHz
Frame rate : 31.250 FPS (1536 SPF)
Bit depth : 16 bits
Compression mode : Lossy
Stream size : 122 MiB (8%)
Title : MOV | CINE+ KIDS HD
Language : Ukrainian
Service kind : Complete Main
Default : No
Forced : No

Menu
00:00:00.000 : :00:00:00.000
00:13:02.824 : :00:13:02.823
00:28:16.653 : :00:28:16.653
00:43:11.756 : :00:43:11.714
00:59:12.966 : :00:59:12.840
01:09:13.149 : :01:09:13.148
01:24:27.062 : :01:24:27.062
Скріншоти:


Запис: Sando7, xslim
Зведення: sergiyko


 Трекер:    Зареєстрований   

Завантажити / скачати мультфільм українською



відео для новачків



 Зареєстрований:   2019-02-20 22:46
 Розмір:   1.42 GB 
 Оцінка мультфільму:   9.9/10 (Голосів: 12)
   
Libra73 
Новенький


З нами з: 17.11.10
Востаннє: 05.05.19
Повідомлень: 18

2018-06-03 22:14  
Цитата:
Історія маленького чорного кошеня

Можливо помиляюся, але:
кого? чого? - кошеняти.

Цитата:
щасливо і спокійно рівно до тих пір

Не звучить. Схоже на русизм або неякісний переклад.
Не лінгвіст, але поки що можу запропонувати замінити на "аж раптом", "допоки".

Amigo1982 
Новенький


З нами з: 08.12.17
Востаннє: 16.06.19
Повідомлень: 4

2018-06-04 10:46  
Не сподобався мультик. Мабудь більше для дітей.
fersik 
Новенький


З нами з: 30.08.15
Востаннє: 14.06.19
Повідомлень: 12

2018-06-06 21:05  
А мені і моєму сину ДУЖЕ сподобався мультфільм. Добрий, класний і якісний!
andrusyk.yuri 
Новенький


З нами з: 10.01.14
Востаннє: 12.06.19
Повідомлень: 4

2018-08-27 18:24  
дякую !
sergiyko.5 
VIP


З нами з: 25.02.16
Востаннє: 16.06.19
Повідомлень: 2327

2019-02-20 12:38  
Торент оновлено, додав озвучку телеканала ТЕТ
pintg 
Свій


З нами з: 14.04.16
Востаннє: 14.06.19
Повідомлень: 110

2019-02-20 17:55  
sergiyko.5 написано:
Торент оновлено, додав озвучку телеканала ТЕТ

Починаючи з 33:15 у доріжці від TET звук не відповідає відео - таке враження, що випало декілька хвилин.

Додано через 10 хвилин 39 секунд:

Схоже десь 1:45 випало

Додано через 58 хвилин 5 секунд:

Після 41:57 звук на доріжці ТЕТ знову у нормі.

sergiyko.5 
VIP


З нами з: 25.02.16
Востаннє: 16.06.19
Повідомлень: 2327

2019-02-20 22:53  
Файл виправив, адоб аудішн зберіг файл з помилками. Торент перезалито.
bogdan8249 
Відео Гуртом - фільмокрай
Відео Гуртом - фільмокрай


З нами з: 09.08.08
Востаннє: 17.06.19
Повідомлень: 1216

2019-02-21 00:56  
А "ippai attena" не разом часом пишеться? Я, звісно, не японець, але на IMDb воно разом написано.
Ваш часовий пояс: GMT + 2 Години

Нова тема   Відповісти