Чорний кіт Рудольф (Жив собі кіт, Rudolf the Black Cat) / Rudorufu to Ippaiattena (2016) 720p 2xUkr/Jpn

Нові коментарі

Нова тема   Відповісти
Автор Повідомлення
sergiyko.5 
Забанено
Забанено


З нами з: 25.02.16
Востаннє: 29.10.20
Повідомлень: 3648

2018-06-02 21:10  
Чорний кіт Рудольф (Жив собі кіт, Rudolf the Black Cat) / Rudorufu to Ippaiattena (2016) 720p 2xUkr/Jpn


Чорний кіт Рудольф (Жив собі кіт, Rudolf the Black Cat) / Rudorufu to Ippaiattena (2016) 720p 2xUkr/Jpn

Жанр: пригодницький, комедія
Країна: Японія, Канада



Кінокомпанія: Bandai, Chukyo TV Broadcasting Company (CTV), D.N. Dream Partners
Режисер: Мікінорі Сакакібара, Куніхіко Юяма

Сюжет:
Історія маленького чорного кошеня з гордим ім'ям Рудольф, який жив щасливо і спокійно рівно до тих пір, поки через фатальну випадковість він не виявився в невідомому великому місті. Тут герою доведеться виживати без ласки і турботи господарів, але ж раніше він був твердо переконаний, що завжди буде в цілковитій безпеці.


Тривалість: 01:28:39
Якість:

Відео: кодек: розмір кадру: 1280 х 720 бітрейт: 5700 кб/с
Аудіо # 1: мова: українська переклад: багатоголосий закадровий кодек: 2.0 бітрейт: 192 кб/с
Озвучення:
Аудіо # 2: мова: українська переклад: багатоголосий закадровий кодек: 2.0 бітрейт: 192 кб/с
Озвучення:
Аудіо # 3: мова: японська переклад: оригінал кодек: 5.1 бітрейт: 640 кб/с
Info
General
Unique ID : 299053490222142231131950491715962332242 (0xE0FB9B7019287BA9B8D902698C6EE452)
Complete name : G:\Torrents2\MULT\Rudolf.the.Black.Cat.2016..720p.Ukr.Jpn.
Format :
Format version : Version 4
File size : 4.14 GiB
Duration : 1 h 28 min
Overall bit rate : 6 693 kb/s
Movie name : Rudolf The Black Cat 2016 720p by sergiyko
Encoded date : UTC 2019-02-20 09:17:00
Writing application : v30.0.0 ('Interstellar') 64-bit
Writing library : libebml v1.3.6 + v1.4.9

Video
ID : 1
Format : AVC
Format/Info : Advanced Video Codec
Format profile : [email protected]
Format settings : CABAC / 9 Ref Frames
Format settings, CABAC : Yes
Format settings, ReFrames : 9 frames
Codec ID : V_MPEG4/ISO/AVC
Duration : 1 h 28 min
Bit rate : 5 666 kb/s
Width : 1 280 pixels
Height : 720 pixels
Display aspect ratio : 16:9
Frame rate mode : Constant
Frame rate : 23.976 (24000/1001) FPS
Color space : YUV
Chroma subsampling : 4:2:0
Bit depth : 8 bits
Scan type : Progressive
Bits/(Pixel*Frame) : 0.256
Stream size : 3.51 GiB (85%)
Title : Rudolf The Black Cat 2016
Writing library : core 129 r2245+704+36 8e61944 tMod+MixAQ [[email protected]:2:0 X86_64]
Encoding settings : cabac=1 / ref=9 / deblock=1:-1:-1 / analyse=0x3:0x133 / me=umh / subme=11 / psy=1 / fade_compensate=0.00 / psy_rd=1.00:0.00 / mixed_ref=1 / me_range=32 / chroma_me=1 / trellis=2 / 8x8dct=1 / cqm=0 / deadzone=21,11 / fast_pskip=0 / chroma_qp_offset=-2 / threads=18 / lookahead_threads=3 / sliced_threads=0 / nr=0 / decimate=0 / interlaced=0 / bluray_compat=0 / constrained_intra=0 / fgo=0 / bframes=10 / b_pyramid=2 / b_adapt=2 / b_bias=0 / direct=3 / weightb=1 / open_gop=0 / weightp=2 / keyint=250 / keyint_min=23 / scenecut=40 / intra_refresh=0 / rc=2pass / mbtree=0 / bitrate=5666 / ratetol=1.0 / qcomp=0.70 / qpmin=0 / qpmax=69 / qpstep=4 / cplxblur=20.0 / qblur=0.5 / ip_ratio=1.40 / pb_ratio=1.30 / aq=1 / aq-strength=0.95 / aq-sensitivity=10.00 / aq-ifactor=1.00 / aq-pfactor=1.00 / aq-bfactor=1.00 / aq2=0
Language : Japanese
Default : Yes
Forced : No

Audio #1
ID : 2
Format : AC-3
Format/Info : Audio Coding 3
Commercial name : Dolby Digital
Codec ID : A_AC3
Duration : 1 h 28 min
Bit rate mode : Constant
Bit rate : 192 kb/s
Channel(s) : 2 channels
Channel layout : L R
Sampling rate : 48.0 kHz
Frame rate : 31.250 FPS (1536 SPF)
Bit depth : 16 bits
Compression mode : Lossy
Stream size : 122 MiB (3%)
Title : MOV 2ch | ТЕТ
Language : Ukrainian
Service kind : Complete Main
Default : Yes
Forced : Yes

Audio #2
ID : 3
Format : AC-3
Format/Info : Audio Coding 3
Commercial name : Dolby Digital
Codec ID : A_AC3
Duration : 1 h 28 min
Bit rate mode : Constant
Bit rate : 192 kb/s
Channel(s) : 2 channels
Channel layout : L R
Sampling rate : 48.0 kHz
Frame rate : 31.250 FPS (1536 SPF)
Bit depth : 16 bits
Compression mode : Lossy
Stream size : 122 MiB (3%)
Title : MOV | CINE+ KIDS HD
Language : Ukrainian
Service kind : Complete Main
Default : No
Forced : No

Audio #3
ID : 4
Format : AC-3
Format/Info : Audio Coding 3
Commercial name : Dolby Digital
Codec ID : A_AC3
Duration : 1 h 28 min
Bit rate mode : Constant
Bit rate : 640 kb/s
Channel(s) : 6 channels
Channel layout : L R C LFE Ls Rs
Sampling rate : 48.0 kHz
Frame rate : 31.250 FPS (1536 SPF)
Bit depth : 16 bits
Compression mode : Lossy
Stream size : 406 MiB (10%)
Title : Original
Language : Japanese
Service kind : Complete Main
Default : No
Forced : No

Menu
00:00:00.000 : en:00:00:00.000
00:13:02.823 : en:00:13:02.823
00:28:16.653 : en:00:28:16.653
00:43:11.714 : en:00:43:11.714
00:59:12.840 : en:00:59:12.840
01:09:13.148 : en:01:09:13.148
01:24:27.062 : en:01:24:27.062
Скріншоти:


Запис: Sando7, xslim
Зведення: sergiyko


 Трекер:    Зареєстрований   

Завантажити / скачати мультфільм українською



відео для новачків



 Зареєстрований:   2019-02-20 21:54
 Розмір:   4.14 GB 
 Оцінка мультфільму:   9.8/10 (Голосів: 9)
   
ntrader 
Свій


З нами з: 31.05.16
Востаннє: 03.03.21
Повідомлень: 71

2018-07-16 07:18  
Подивились 20 хв і виключили. Щось не пішов нам цей мульфільм
strannikosho_trek 
Частий відвідувач


З нами з: 29.05.14
Востаннє: 03.03.21
Повідомлень: 33

2018-07-17 18:43  
ntrader
Повністю підтримую. Хто ставив високі оцінки, не знаю. Діти не дивилися, я теж.

kapa74 
Новенький


З нами з: 02.06.13
Востаннє: 03.03.21
Повідомлень: 1

2018-10-24 13:44  
Супер мульт
вусатиймавр 
Новенький


З нами з: 18.11.17
Востаннє: 01.03.21
Повідомлень: 1

2019-01-21 18:50  
Мульт супер, переглядали з сином (4 роки) разів з 20.
sergiyko.5 
Забанено
Забанено


З нами з: 25.02.16
Востаннє: 29.10.20
Повідомлень: 3648

2019-02-20 21:55  
Торент оновлено. Додав озвучку від ТЕТ.
11FrYkT 
Модератор відео


З нами з: 20.02.11
Востаннє: 03.03.21
Повідомлень: 7152

2019-02-21 13:40  
sergiyko.5 , тут з доріжкою з тет норм, чи будете оновлювати?
sergiyko.5 
Забанено
Забанено


З нами з: 25.02.16
Востаннє: 29.10.20
Повідомлень: 3648

2019-02-21 13:45  
11FrYkT
Доріжка в порядку.

Ваш часовий пояс: GMT + 2 Години

Нова тема   Відповісти