Астерікс і вікінги / Asterix et les Vikings (2006) AVC 2xUkr/Fra | Sub Eng

Нові коментарі

Нова тема   Відповісти
Автор Повідомлення
staf777 
Відео Гуртом - підтримка та поширення
Відео Гуртом - підтримка та поширення


З нами з: 16.11.16
Востаннє: 26.10.20
Повідомлень: 4228

2018-06-02 19:13  
Астерікс і вікінги / Asterix et les Vikings (2006) AVC 2xUkr/Fra | Sub Eng

Астерікс і вікінги / Asterix et les Vikings (2006) AVC 2xUkr/Fra | Sub Eng
Оригінальний постер

Астерікс і вікінги / Asterix et les Vikings (2006) AVC 2xUkr/Fra | Sub Eng
Жанр: анімація, пригодницький, комедія
Країна: Франція



Кінокомпанія: M6 Films, Mandarin SAS, 2d3D Animations
Режисер: Стефан Фельдмарк, Джеспер Мюллер
Актори: Роже Карель, Лоран Дойч, Сара Форест, Жак Франц, П'єр Пальмад, П'єр Чернія, Бернар Алан, Марк Альфос, Жуль Азем, Патрік Борґ

Сюжет:
Астерікс і Обелікс вперше у своєму житті повинні зустрітися з вікінгами. Безстрашні воїни з північної країни викрали племінника вождя галлів, юного Задиру. Місія надзвичайно небезпечна, тому що вікінґи славляться як відчайдушні і безжальні воїни...


Тривалість: 01:18:13
Якість: AVC
Відео:
кодек:
розмір кадру: 1024x552
бітрейт: 2294 кб/с

Аудіо # 1:
мова: українська
переклад: багатоголосий закадровий
кодек: 2.0
бітрейт: 192 кб/с
Інформація про озвучення

Ролі озвучили: Дмитро Завадський, Олег Лепенець, Павло Скороходько, Юлія Перенчук.
Аудіо # 2:
мова: українська
переклад: багатоголосий закадровий
кодек: 2.0
бітрейт: 192 кб/с
Інформація про озвучення

Ролі озвучили: Олег Стальчук, Анатолій Пашнін, Володимир Терещук і Олена Бліннікова.
Мультфільм озвучено студією Так Треба Продакшн на замовлення Інтер.
Аудіо # 3:
мова: французька
переклад: оригінал
кодек: 5.1
бітрейт: 384 кб/с

Субтитри:
мова: англійська
тип: програмні (м'які)
формат: *.srt
Info
General
Unique ID : 245756718967280999088901766658424461007 (0xB8E305BC9E69C58C9CDF89B8BE6E56CF)
Complete name : H:\Майбутні релізи\Asterix et les Vikings (2006) AVC [2xUkr][Fra][Sub Eng].
Format :
Format version : Version 4 / Version 2
File size : 1.67 GiB
Duration : 1 h 18 min
Overall bit rate : 3 064 kb/s
Movie name : Asterix et les Vikings (2006) AVC [2xUkr][Fra][Sub Eng]
Encoded date : UTC 2018-06-05 13:30:56
Writing application : v9.8.0 ('Kuglblids') 64bit
Writing library : libebml v1.3.4 + v1.4.5
Cover : Yes
Attachments : cover.jpg..jpg

Video
ID : 1
Format : AVC
Format/Info : Advanced Video Codec
Format profile : [email protected]
Format settings : CABAC / 8 Ref Frames
Format settings, CABAC : Yes
Format settings, ReFrames : 8 frames
Codec ID : V_MPEG4/ISO/AVC
Duration : 1 h 18 min
Bit rate : 2 294 kb/s
Width : 1 024 pixels
Height : 552 pixels
Display aspect ratio : 1.85:1
Frame rate mode : Constant
Frame rate : 24.000 FPS
Color space : YUV
Chroma subsampling : 4:2:0
Bit depth : 8 bits
Scan type : Progressive
Bits/(Pixel*Frame) : 0.169
Stream size : 1.25 GiB (75%)
Writing library : core 92 r1510 33d382a
Encoding settings : cabac=1 / ref=8 / deblock=1:-1:-1 / analyse=0x3:0x133 / me=umh / subme=7 / psy=1 / psy_rd=1.00:0.10 / mixed_ref=1 / me_range=16 / chroma_me=1 / trellis=2 / 8x8dct=1 / cqm=0 / deadzone=21,11 / fast_pskip=0 / chroma_qp_offset=-3 / threads=3 / sliced_threads=0 / nr=0 / decimate=1 / interlaced=0 / constrained_intra=0 / bframes=3 / b_pyramid=2 / b_adapt=2 / b_bias=0 / direct=3 / wpredb=1 / wpredp=2 / keyint=250 / keyint_min=25 / scenecut=40 / intra_refresh=0 / rc_lookahead=50 / rc=2pass / mbtree=1 / bitrate=2294 / ratetol=1.0 / qcomp=0.60 / qpmin=10 / qpmax=51 / qpstep=4 / cplxblur=20.0 / qblur=0.5 / ip_ratio=1.40 / aq=1:1.00
Default : Yes
Forced : No

Audio #1
ID : 2
Format : AC-3
Format/Info : Audio Coding 3
Codec ID : A_AC3
Duration : 1 h 18 min
Bit rate mode : Constant
Bit rate : 192 kb/s
Channel(s) : 2 channels
Channel positions : Front: L R
Sampling rate : 48.0 kHz
Frame rate : 31.250 FPS (1536 SPF)
Bit depth : 16 bits
Compression mode : Lossy
Stream size : 107 MiB (6%)
Title : [UA-MVO]
Language : Ukrainian
Service kind : Complete Main
Default : Yes
Forced : Yes

Audio #2
ID : 3
Format : AC-3
Format/Info : Audio Coding 3
Codec ID : A_AC3
Duration : 1 h 18 min
Bit rate mode : Constant
Bit rate : 192 kb/s
Channel(s) : 2 channels
Channel positions : Front: L R
Sampling rate : 48.0 kHz
Frame rate : 31.250 FPS (1536 SPF)
Bit depth : 16 bits
Compression mode : Lossy
Stream size : 107 MiB (6%)
Title : [UA-MVO]
Language : Ukrainian
Service kind : Complete Main
Default : No
Forced : No

Audio #3
ID : 4
Format : AC-3
Format/Info : Audio Coding 3
Codec ID : A_AC3
Duration : 1 h 18 min
Bit rate mode : Constant
Bit rate : 384 kb/s
Channel(s) : 6 channels
Channel positions : Front: L C R, Side: L R, LFE
Sampling rate : 48.0 kHz
Frame rate : 31.250 FPS (1536 SPF)
Bit depth : 16 bits
Compression mode : Lossy
Stream size : 215 MiB (13%)
Language : French
Service kind : Complete Main
Default : No
Forced : No

Text
ID : 5
Format : UTF-8
Codec ID : S_TEXT/UTF8
Codec ID/Info : UTF-8 Plain Text
Duration : 1 h 10 min
Bit rate : 57 b/s
Count of elements : 704
Stream size : 29.5 KiB (0%)
Language : English
Default : No
Forced : No
Скріншоти




Подяка пану POMEO за запис Аудіо №1 і пану xslim за запис Аудіо №2.
Джерело: &
Особиста оцінка: 0 - не дивився


 Трекер:    Зареєстрований   

Завантажити / скачати мультфільм українською



відео для новачків



 Зареєстрований:   2018-06-05 17:10
 Розмір:   1.67 GB 
 Оцінка мультфільму:   8.9/10 (Голосів: 10)
   
bot 
робот


З нами з: 30.09.07
Востаннє: 26.05.05
Повідомлень: 25961

2018-06-05 17:10  
Тему перенесено з Анонси релізів до форуму Мультфільми


staf777

ProgBassing 
Попереджень: 1
Попереджень: 1 


З нами з: 08.03.08
Востаннє: 26.10.20
Повідомлень: 873

2018-07-03 10:11  
доріжка №1 - Новий канал (той паскудний голос, що начитує титри + стальчуки і пашніни)
доріжка №2 - ТЕТ (скрипучий дятел а-ля диктор-оповідач, а також Лепенець, Скороходько і Перенчук)

Djohnnikey 
VIP


З нами з: 01.10.15
Востаннє: 26.10.20
Повідомлень: 421

2019-07-08 22:08  
Напевно один з кращих мультів про Обелікса. Повернення до олдскула (причому ґеґі тут грають, не пролітають повз), легкий та невимушений сюжет, в якому є певна родзинка.
9 з 10.

Ваш часовий пояс: GMT + 2 Години

Нова тема   Відповісти