Труп нареченої / Corpse Bride (2005) AVC Ukr/Eng | Sub Eng

Нові коментарі

Нова тема   Відповісти
Автор Повідомлення
staf777 
Відео Гуртом - підтримка та поширення
Відео Гуртом - підтримка та поширення


З нами з: 16.11.16
Востаннє: 28.10.20
Повідомлень: 4235

2018-06-02 18:55  

Труп нареченої / Corpse Bride (2005) AVC Ukr/Eng | Sub Eng



«Помилка виявилася смертельною»
Оригінальна обкладинка


Жанр: анімація, музичний, фентезі, драма, мелодрама, сімейний
Країна: США



Кіностудія / кінокомпанія: Warner Brothers Tim Burton Animation Co., Laika Entertainment, Will Vinton Studios
Режисер: Тім Бартон, Майк Джонсон
Актори: Джонні Депп, Гелена Бонем Картер, Емілі Вотсон, Альберт Фінні, Джоанна Ламлі, Крістофер Лі
Касові збори

У США стрічка отримала $53,359,111, за кордоном - $63,835,950 (усього - $117,195,061)
Сюжет:
Дія відбувається у європейській провінції часів вікторіанської епохи. У похмурому місті родини Ван Дортів та Еверґлотів готують весілля своїх нащадків — Віктора та Вікторії. Задум взаємовигідний: збіднілі аристократи Еверґлоти врятуються від ганебної вбогості, а торговці рибою Ван Дорти увійдуть до вищого суспільства. Самі наречені, не схожі на своїх батьків, окасті й затуркані Віктор та Вікторія, в тій ситуації нікого не цікавлять. Вони знайомляться на репетиції весілля й, на щастя, подобаються одне одному. Але репетиція не вдається — Віктор плутає слова, підпалює майбутню тещу і, щоб не отримати на горіхи від зловісного пастора, втікає в лісок. ...



Тривалість: 01:17:11
Якість: AVC
Відео:
кодек:
розмір кадру: 1024x576
бітрейт: 2223 кб/с

Аудіо # 1:
мова:українська
переклад: багатоголосий закадровий
кодек: 2.0
бітрейт: 192 кб/с

Аудіо # 2:
мова: англійська
переклад: оригінал
кодек: 5.1
бітрейт: 448 кб/с

Джерело озвучення:
озвучено «Так Треба Продакшн» на замовлення телекомпанії

Субтитри # 1-2:
мова: англійська
тип: програмні (м'які)
формат: *.srt
MI
General
Unique ID : 202822584210454948122558402986530610678 (0x98963576128829B6AEBB9D68C9D49DF6)
Complete name : H:\Майбутні релізи\Corpse Bride (2005) AVC [Ukr][Eng][Sub Eng][Hurtom].
Format :
Format version : Version 4 / Version 2
File size : 1.55 GiB
Duration : 1 h 17 min
Overall bit rate : 2 866 kb/s
Movie name : Corpse Bride (2005) AVC [Ukr][Eng][Sub Eng][Hurtom]
Encoded date : UTC 2018-06-03 18:27:27
Writing application : v9.8.0 ('Kuglblids') 64bit
Writing library : libebml v1.3.4 + v1.4.5
Cover : Yes
Attachments : cover.jpg

Video
ID : 1
Format : AVC
Format/Info : Advanced Video Codec
Format profile : [email protected]
Format settings : CABAC / 11 Ref Frames
Format settings, CABAC : Yes
Format settings, ReFrames : 11 frames
Codec ID : V_MPEG4/ISO/AVC
Duration : 1 h 17 min
Bit rate : 2 223 kb/s
Width : 1 024 pixels
Height : 576 pixels
Display aspect ratio : 16:9
Frame rate mode : Variable
Frame rate : 23.976 (24000/1001) FPS
Color space : YUV
Chroma subsampling : 4:2:0
Bit depth : 8 bits
Scan type : Progressive
Bits/(Pixel*Frame) : 0.157
Stream size : 1.20 GiB (78%)
Writing library : core 120
Encoding settings : cabac=1 / ref=11 / deblock=1:-3:-3 / analyse=0x3:0x133 / me=tesa / subme=11 / psy=1 / psy_rd=0.90:0.25 / mixed_ref=1 / me_range=32 / chroma_me=1 / trellis=2 / 8x8dct=1 / cqm=0 / deadzone=21,11 / fast_pskip=1 / chroma_qp_offset=-4 / threads=3 / sliced_threads=0 / nr=0 / decimate=1 / interlaced=0 / bluray_compat=0 / constrained_intra=0 / bframes=8 / b_pyramid=2 / b_adapt=2 / b_bias=0 / direct=1 / weightb=1 / open_gop=0 / weightp=2 / keyint=500 / keyint_min=50 / scenecut=40 / intra_refresh=0 / rc=crf / mbtree=0 / crf=18.0 / qcomp=0.70 / qpmin=3 / qpmax=69 / qpstep=4 / ip_ratio=1.30 / pb_ratio=1.20 / aq=2:1.00
Default : Yes
Forced : No
Color range : Limited
Color primaries : BT.709
Transfer characteristics : BT.709
Matrix coefficients : BT.709

Audio #1
ID : 2
Format : AC-3
Format/Info : Audio Coding 3
Codec ID : A_AC3
Duration : 1 h 17 min
Bit rate mode : Constant
Bit rate : 192 kb/s
Channel(s) : 2 channels
Channel positions : Front: L R
Sampling rate : 48.0 kHz
Frame rate : 31.250 FPS (1536 SPF)
Bit depth : 16 bits
Compression mode : Lossy
Stream size : 106 MiB (7%)
Title : «Так Треба Продакшн»
Language : Ukrainian
Service kind : Complete Main
Default : Yes
Forced : Yes

Audio #2
ID : 3
Format : AC-3
Format/Info : Audio Coding 3
Codec ID : A_AC3
Duration : 1 h 17 min
Bit rate mode : Constant
Bit rate : 448 kb/s
Channel(s) : 6 channels
Channel positions : Front: L C R, Side: L R, LFE
Sampling rate : 48.0 kHz
Frame rate : 31.250 FPS (1536 SPF)
Bit depth : 16 bits
Compression mode : Lossy
Stream size : 247 MiB (16%)
Language : English
Service kind : Complete Main
Default : No
Forced : No

Text
ID : 4
Format : UTF-8
Codec ID : S_TEXT/UTF8
Codec ID/Info : UTF-8 Plain Text
Duration : 1 h 10 min
Bit rate : 54 b/s
Count of elements : 840
Stream size : 28.2 KiB (0%)
Language : English
Default : No
Forced : No

Menu
00:00:00.000 : :Chapter 01
00:02:21.307 : :Chapter 02
00:06:29.389 : :Chapter 03
00:10:46.145 : :Chapter 04
00:14:31.203 : :Chapter 05
00:18:53.966 : :Chapter 06
00:20:32.731 : :Chapter 07
00:23:58.770 : :Chapter 08
00:27:20.805 : :Chapter 09
00:30:27.659 : :Chapter 10
00:33:22.166 : :Chapter 11
00:36:17.508 : :Chapter 12
00:39:53.390 : :Chapter 13
00:43:21.098 : :Chapter 14
00:46:19.943 : :Chapter 15
00:48:54.598 : :Chapter 16
00:52:02.953 : :Chapter 17
00:54:50.453 : :Chapter 18
00:56:57.080 : :Chapter 19
01:00:15.445 : :Chapter 20
01:03:45.488 : :Chapter 21
01:07:41.057 : :Chapter 22
01:11:12.101 : :Chapter 23
01:13:26.402 : :Chapter 24
01:17:11.585 : :Chapter 25
Скріншоти




Джерело: &
Особиста оцінка: 8 - мені сподобалося
Труп нареченої / Corpse Bride (2005) AVC Ukr/Eng | Sub Eng


 Трекер:    Зареєстрований   

Завантажити / скачати мультфільм українською



відео для новачків



 Зареєстрований:   2018-06-04 14:09
 Розмір:   1.55 GB 
 Оцінка мультфільму:   9.6/10 (Голосів: 30)
   
Інші релізи
bot 
робот


З нами з: 30.09.07
Востаннє: 26.05.05
Повідомлень: 25984

2018-06-04 14:09  
Тему перенесено з Анонси релізів до форуму Мультфільми


staf777

AnastasiaKoval 
Новенький


З нами з: 18.02.20
Востаннє: 18.02.20
Повідомлень: 1

2020-02-18 20:07  
Дякую ☺️💛💙💛💙💛💙💛💙
Ваш часовий пояс: GMT + 2 Години

Нова тема   Відповісти