Роботи / Robots (2005) AVC Ukr/Eng | Sub Eng

Нові коментарі

Нова тема   Відповісти
Автор Повідомлення
staf777 
Відео Гуртом - підтримка та поширення
Відео Гуртом - підтримка та поширення


З нами з: 16.11.16
Востаннє: 26.10.20
Повідомлень: 4226

2018-06-02 18:51  
Роботи / Robots (2005) AVC Ukr/Eng | Sub Eng

Роботи / Robots (2005) AVC Ukr/Eng | Sub Eng

Альтернативні постери




Жанр: анімація, мелодрама, комедія, музичний, пригодницький, сімейний, фантастика
Країна: США



Кінокомпанія: Twentieth Century Fox Animation, Blue Sky Studios
Режисер: Карлос Салдана / Carlos Saldanha, Кріс Ведж / Chris Wedge
Актори: Юен МакҐреґор / Ewan McGregor, Геллі Беррі / Halle Berry, Джим Бродбент / Jim Broadbent, Мел Брукс / Mel Brooks, Дженніфер Кулідж / Jennifer Coolidge, Пол Джіаматті / Paul Giamatti, Ден Гедайа / Dan Hedaya, Наташа Ліонн / Natasha Lyonne, Стенлі Тучі / Stanley Tucci, Робін Вільямс / Robin Williams, Пола Абдул / Paula Abdul, Джеймс Ерл Джонс / James Earl Jones та інші

Сюжет:
Вперше вам відкриється повністю вигаданий світ, населений виключно роботами. Як і в світі людей у них є своя соціальна ієрархія, свої герої та вигнанці. Молодий геніальний винахідник Родні мріє зробити світ роботів кращим і зустрітися зі своїм кумиром - ґуру винахідників Біґ Ботом. А ще йому дуже подобається одна молоденька робот Каппі. Але на шляху всіх його планів стоїть місцевий олігарх Біг Велд, що очолив корпорацію Біґ Бота і намагається здобути владу над всіма роботами, контролюючи випуск запчастин.


Тривалість: 01:29:47
Якість: AVC
Відео:
кодек:
розмір кадру: 1024x554
бітрейт: 2841 кб/с

Аудіо # 1: &
мова: українська
переклад: двоголосий закадровий
кодек: 2.0
бітрейт: 192 кб/с

Аудіо # 2:
мова: англійська
переклад: оригінал
кодек: 5.1
бітрейт: 448 кб/с

Субтитри:
мова: англійська
тип: програмні (м'які)
формат: *.srt
Info
General
Unique ID : 215165507339867886145927107419480455576 (0xA1DF5E8E478AE3EA9253F219BF26F998)
Complete name : H:\Майбутні релізи\Robots (2005) AVC [Ukr,Eng sub.Eng] [Hurtom].
Format :
Format version : Version 4 / Version 2
File size : 2.18 GiB
Duration : 1 h 29 min
Overall bit rate : 3 484 kb/s
Movie name : Robots (2005) AVC [Ukr,Eng sub.Eng] [Hurtom]
Encoded date : UTC 2018-06-03 13:08:03
Writing application : v9.8.0 ('Kuglblids') 64bit
Writing library : libebml v1.3.4 + v1.4.5
Cover : Yes
Attachments : cover.jpg

Video
ID : 1
Format : AVC
Format/Info : Advanced Video Codec
Format profile : [email protected]
Format settings : CABAC / 9 Ref Frames
Format settings, CABAC : Yes
Format settings, ReFrames : 9 frames
Codec ID : V_MPEG4/ISO/AVC
Duration : 1 h 29 min
Bit rate : 2 841 kb/s
Width : 1 024 pixels
Height : 554 pixels
Display aspect ratio : 1.85:1
Frame rate mode : Constant
Frame rate : 23.976 FPS
Color space : YUV
Chroma subsampling : 4:2:0
Bit depth : 8 bits
Scan type : Progressive
Bits/(Pixel*Frame) : 0.209
Stream size : 1.78 GiB (82%)
Title : Rip by 0ptimus
Writing library : core 124 r2197 69a0443
Encoding settings : cabac=1 / ref=9 / deblock=1:-2:-1 / analyse=0x3:0x113 / me=umh / subme=11 / psy=1 / psy_rd=1.00:0.20 / mixed_ref=1 / me_range=32 / chroma_me=1 / trellis=2 / 8x8dct=1 / cqm=0 / deadzone=21,11 / fast_pskip=0 / chroma_qp_offset=-3 / threads=4 / sliced_threads=0 / nr=0 / decimate=0 / interlaced=0 / bluray_compat=0 / constrained_intra=0 / bframes=6 / b_pyramid=2 / b_adapt=2 / b_bias=0 / direct=3 / weightb=1 / open_gop=0 / weightp=2 / keyint=240 / keyint_min=23 / scenecut=40 / intra_refresh=0 / rc=2pass / mbtree=0 / bitrate=2841 / ratetol=1.0 / qcomp=0.60 / qpmin=0 / qpmax=69 / qpstep=4 / cplxblur=20.0 / qblur=0.5 / ip_ratio=1.40 / pb_ratio=1.30 / aq=1:1.00
Language : English
Default : Yes
Forced : Yes

Audio #1
ID : 2
Format : AC-3
Format/Info : Audio Coding 3
Codec ID : A_AC3
Duration : 1 h 29 min
Bit rate mode : Constant
Bit rate : 192 kb/s
Channel(s) : 2 channels
Channel positions : Front: L R
Sampling rate : 48.0 kHz
Frame rate : 31.250 FPS (1536 SPF)
Bit depth : 16 bits
Compression mode : Lossy
Stream size : 123 MiB (6%)
Title : [UA-DV0]
Language : Ukrainian
Service kind : Complete Main
Default : Yes
Forced : Yes

Audio #2
ID : 3
Format : AC-3
Format/Info : Audio Coding 3
Codec ID : A_AC3
Duration : 1 h 29 min
Bit rate mode : Constant
Bit rate : 448 kb/s
Channel(s) : 6 channels
Channel positions : Front: L C R, Side: L R, LFE
Sampling rate : 48.0 kHz
Frame rate : 31.250 FPS (1536 SPF)
Bit depth : 16 bits
Compression mode : Lossy
Stream size : 288 MiB (13%)
Language : English
Service kind : Complete Main
Default : No
Forced : No

Text
ID : 4
Format : UTF-8
Codec ID : S_TEXT/UTF8
Codec ID/Info : UTF-8 Plain Text
Duration : 1 h 22 min
Bit rate : 58 b/s
Count of elements : 1027
Stream size : 35.7 KiB (0%)
Language : English
Default : No
Forced : No

Menu
00:00:00.000 : :Rivet Town's Newest Arrival
00:02:03.540 : :The Copperbottom Boy
00:04:24.138 : :The World of Bigweld
00:07:17.311 : :The Inventor
00:10:50.983 : :Follow Your Dream
00:13:34.396 : :Robot City
00:15:52.826 : :The Crosstown Express
00:19:04.893 : :Those Days Are Over
00:22:42.611 : :Rodney Drops In
00:24:44.191 : :Magnetic Personality
00:26:44.394 : :Madame Gasket
00:29:24.512 : :Scroungers
00:33:03.773 : :Outmoded
00:34:58.346 : :The Rusties
00:36:36.444 : :Aunt Fanny's Boarding House
00:41:03.335 : :Repairs By Rodney
00:45:55.043 : :Going to the Bigweld Ball
00:49:53.198 : :Troublemaker
00:53:42.344 : :Looking for Mr. Bigweld
00:59:09.003 : :Fender Under Fire
01:01:02.992 : :Dad's Advice
01:04:39.875 : :Bigweld's Back!
01:06:54.760 : :Rodney on the Run
01:12:24.631 : :Robot Rebellion
01:16:12.901 : :See a Need, Fill a Need
01:19:00.235 : :My Right-Hand Bot
01:21:24.212 : :Get Up Offa That Thing
01:23:39.764 : :End Titles
Скріншоти




українська доріжка - taraskill1 - зведення, xslim, SalCom - запис з ТБ; thefir, Ham_R - постери
Джерело: &
Особиста оцінка: 0 - не дивився


 Трекер:    Зареєстрований   

Завантажити / скачати мультфільм українською



відео для новачків



 Зареєстрований:   2018-06-03 15:56
 Розмір:   2.18 GB 
 Оцінка мультфільму:   9.3/10 (Голосів: 19)
   
Інші релізи
   Роботи / Robots (2005) 1080p H.265 Ukr/Eng | Sub Eng -Star-Lord-  4 / 0   5.18 GB   2020-05-14 15:21 
   Роботи / Robots (2005) Remux 1080p Ukr/Eng | Sub Eng Dr.S  2 / 0   20.32 GB   2018-04-21 15:47 
   Роботи / Robots (2005) 1080p Ukr/Eng | Sub Eng staf777  2 / 0   8.4 GB   2018-02-08 17:40 
   Роботи / Robots (2005) 720p Ukr/Eng | Sub Eng/Ger/Spa/Por igor911  2 / 0   4.14 GB   2016-05-29 15:12 
   Роботи / Robots (2005) taraskill1  12 / 0   1.29 GB   2016-05-29 07:30 
bot 
робот


З нами з: 30.09.07
Востаннє: 26.05.05
Повідомлень: 25946

2018-06-03 15:56  
Тему перенесено з Анонси релізів до форуму Мультфільми


staf777

kirovetz 
Свій


З нами з: 16.10.11
Востаннє: 26.10.20
Повідомлень: 67

2018-06-03 16:53  
Тут краща якість звуку, чи що? бо в мене є 5,1
leicheman 
Відео Гуртом - фільмокрай
Відео Гуртом - фільмокрай


З нами з: 03.07.14
Востаннє: 26.10.20
Повідомлень: 5544

2018-06-03 17:30  
kirovetz
Anonymous написано:
Зведено з свіжого якісного запису, на відміну від попередніх релізів, де присутній ефект "зламаного піаніно" чи переробок HDClub з того ж старого джерела

Ваш часовий пояс: GMT + 2 Години

Нова тема   Відповісти