Легенди осені / Legends of the Fall (1994) AVC Ukr/Eng | Sub Eng

Нові коментарі

Нова тема   Відповісти
Автор Повідомлення
staf777 
Попереджень: 1
Попереджень: 1 


З нами з: 16.11.16
Востаннє: 17.11.18
Повідомлень: 1753

2018-06-02 17:29  
Легенди осені / Legends of the Fall (1994) AVC Ukr/Eng | Sub Eng

Легенди осені / Legends of the Fall (1994) AVC Ukr/Eng | Sub Eng


Жанр: драма, романтичний, вестерн, військовий
Країна: США



Кінокомпанія: TriStar Pictures, Bedford Falls Productions, Pangaea
Режисер: Едвард Цвік / Edward Zwick
Актори: Бред Піт / Brad Pitt, Ентоні Гопкінс / Anthony Hopkins, Ейдан Квін / Aidan Quinn, Джулія Ормонд / Julia Ormond, Генрі Томас / Henry Thomas, Танту Кардинал / Tantoo Cardinal, Ґордон Тутузіс / Gordon Tootoosis та інші

Сюжет:
Історія родини Ладлоу - стрімка і романтична розповідь про трьох братів, їхнього батька та молоду і чарівну жінку, яка неймовірним чином змінює життя кожного з них. З дитинства троє братів нерозлучні, однак вони ще не підозрюють, по якій стежці пристрастей і насильства поведе життя кожного з них. Крізь жахи Першої Світової, крізь втрачені роки, що послідували за війною, через кохання і втрати, зраду і надію. І в центрі завжди опинявся недосяжний, непередбачуваний Трістан...
Фільм знятий за мотивами роману Джима Гаррісона «Легенди осені» (Legends of the Fall, 1979).


Тривалість: 02:12:49
Якість: AVC
Відео:
кодек:
розмір кадру: 1024x554
бітрейт: 3500 кб/с

Аудіо # 1:
мова: українська
переклад: багатоголосий закадровий
кодек: 2.0
бітрейт: 192 кб/с
примітка: доріжка з якіснішого запису, ніж 5.1, озвучення повне.

Аудіо # 2:
мова: англійська
переклад: оригінал
кодек: 5.1
бітрейт: 448 кб/с

Субтитри:
мова: англійська
тип: програмні (м'які)
формат: *.srt
Info
General
Unique ID : 177304175475393292380316274691011479900 (0x85638AC5D6F95497B7274D66A91F895C)
Complete name : H:\Майбутні релізи\Legends of the Fall (1994) AVC [Ukr,Eng sub.Eng] [Hurtom].
Format :
Format version : Version 4 / Version 2
File size : 3.84 GiB
Duration : 2 h 12 min
Overall bit rate : 4 142 kb/s
Movie name : Legends of the Fall (1994) AVC [Ukr,Eng sub.Eng] [Hurtom]
Encoded date : UTC 2018-06-02 15:40:28
Writing application : v9.8.0 ('Kuglblids') 64bit
Writing library : libebml v1.3.4 + v1.4.5
Cover : Yes
Attachments : cover.jpg

Video
ID : 1
Format : AVC
Format/Info : Advanced Video Codec
Format profile : [email protected]
Format settings : CABAC / 9 Ref Frames
Format settings, CABAC : Yes
Format settings, ReFrames : 9 frames
Codec ID : V_MPEG4/ISO/AVC
Duration : 2 h 12 min
Bit rate : 3 500 kb/s
Width : 1 024 pixels
Height : 554 pixels
Display aspect ratio : 1.85:1
Frame rate mode : Constant
Frame rate : 23.976 (24000/1001) FPS
Color space : YUV
Chroma subsampling : 4:2:0
Bit depth : 8 bits
Scan type : Progressive
Bits/(Pixel*Frame) : 0.257
Stream size : 3.25 GiB (84%)
Title : Legendy.Oseni.1994..AVC.MediaClub
Writing library : core 142 r2409+42 04be48a tMod [[email protected]:2:0 X86]
Encoding settings : cabac=1 / ref=9 / deblock=1:-3:-3 / analyse=0x3:0x133 / me=umh / subme=11 / psy=1 / fade_compensate=0.00 / psy_rd=1.00:0.25 / mixed_ref=1 / me_range=32 / chroma_me=1 / trellis=2 / 8x8dct=1 / cqm=0 / deadzone=21,11 / fast_pskip=0 / chroma_qp_offset=-4 / threads=3 / lookahead_threads=1 / sliced_threads=0 / nr=0 / decimate=0 / interlaced=0 / bluray_compat=0 / constrained_intra=0 / fgo=0 / bframes=8 / b_pyramid=2 / b_adapt=2 / b_bias=0 / direct=3 / weightb=1 / open_gop=0 / weightp=2 / keyint=240 / keyint_min=23 / scenecut=40 / intra_refresh=0 / rc=2pass / mbtree=0 / bitrate=3500 / ratetol=1.0 / qcomp=0.60 / qpmin=0:0:0 / qpmax=69:69:69 / qpstep=4 / cplxblur=20.0 / qblur=0.5 / ip_ratio=1.40 / pb_ratio=1.30 / aq=1:1.00 / aq-sensitivity=10.00 / aq-factor=1.00:1.00:1.00 / aq2=0 / aq3=0
Language : English
Default : Yes
Forced : No

Audio #1
ID : 2
Format : AC-3
Format/Info : Audio Coding 3
Codec ID : A_AC3
Duration : 2 h 12 min
Bit rate mode : Constant
Bit rate : 192 kb/s
Channel(s) : 2 channels
Channel positions : Front: L R
Sampling rate : 48.0 kHz
Frame rate : 31.250 FPS (1536 SPF)
Bit depth : 16 bits
Compression mode : Lossy
Stream size : 182 MiB (5%)
Title : 2/0 192
Language : Ukrainian
Service kind : Complete Main
Default : Yes
Forced : Yes

Audio #2
ID : 3
Format : AC-3
Format/Info : Audio Coding 3
Codec ID : A_AC3
Duration : 2 h 12 min
Bit rate mode : Constant
Bit rate : 448 kb/s
Channel(s) : 6 channels
Channel positions : Front: L C R, Side: L R, LFE
Sampling rate : 48.0 kHz
Frame rate : 31.250 FPS (1536 SPF)
Bit depth : 16 bits
Compression mode : Lossy
Stream size : 426 MiB (11%)
Title : _ORIGINAL_ENG
Language : English
Service kind : Complete Main
Default : No
Forced : No

Text
ID : 4
Format : UTF-8
Codec ID : S_TEXT/UTF8
Codec ID/Info : UTF-8 Plain Text
Duration : 2 h 6 min
Bit rate : 37 b/s
Count of elements : 1027
Stream size : 34.8 KiB (0%)
Title : _SUB_ENG
Language : English
Default : No
Forced : No

Menu
00:00:00.000 : en:Start
00:02:07.500 : en:Ludlow Family History
00:08:00.834 : en:Susannah
00:13:08.501 : en:Isabel Two
00:14:59.568 : en:Dinner & Entertainment
00:21:48.569 : en:O'Bannions & Sheriff Tynert
00:25:24.236 : en:Tristan & Susannah
00:34:03.539 : en:"The Horror's Indescribable"
00:39:49.074 : en:Looking for Samuel
00:44:59.708 : en:The Indian Way
00:50:00.008 : en:"I'm in love with you"
00:52:30.909 : en:Tristan Returns
00:56:43.909 : en:Passion Consummated
00:59:26.409 : en:Alfred Leaves
01:05:53.744 : en:Four Beers
01:07:30.578 : en:The Bear's Voice
01:09:05.279 : en:"I'll Wait Forever"
01:11:59.147 : en:Letter For Herself
01:17:27.816 : en:Defending Tristan
01:21:58.849 : en:Tristan Comes Home
01:30:22.417 : en:All Grown Up
01:32:19.252 : en:The Oddest News
01:37:13.187 : en:Bootlegger's Meeting
01:38:17.822 : en:Family Reunion
01:41:52.690 : en:"Stay Out Of Our Way"
01:47:12.957 : en:Prison Visitor
01:53:41.125 : en:Revenge & Suicide
02:00:20.526 : en:Not Here To Arrest Him
Скріншоти




Джерело: &
Особиста оцінка: 10 - без зайвих вагань рекомендую всім!

Подяка DеLight'у, ratbol'у, MAKAPOHHIKу, dvorsky, Malamute за українську доріжку 2.0


Срібний реліз (на рейтинг впливає 50% завантаженого)
 Трекер:    Зареєстрований   

Завантажити / скачати фільм українською



відео для новачків



 Зареєстрований:   2018-06-02 18:42
 Розмір:   3.84 GB 
 Оцінка фільму:   8.9/10 (Голосів: 13)
   
Інші релізи
bot 
робот


З нами з: 30.09.07
Востаннє: 26.05.05
Повідомлень: 20153

2018-06-02 18:42  
Тему перенесено з Анонси релізів до форуму Фільми


staf777

Svetik-semitsvetik 
Новенький


З нами з: 06.07.17
Востаннє: 11.11.18
Повідомлень: 15

2018-06-02 18:45  
Давно колись, ще на відеокасеті, дивилась цей бомбезний фільм.
Jaandrij 
Частий відвідувач


З нами з: 04.04.12
Востаннє: 30.10.18
Повідомлень: 30

2018-07-07 19:26  
Мені здається, чи на постері імена не зовсім співпадають з їхніми власниками?
igor911 
Відео Гуртом
Відео Гуртом


З нами з: 18.01.08
Востаннє: 18.11.18
Повідомлень: 11413

2018-07-07 21:47  
Jaandrij, так іноді чомусь роблять на оригінальних постерах/обкладинках

Ваш часовий пояс: GMT + 2 Години

Нова тема   Відповісти